Subcategories

Ozomatli - Coming Up (enhanced EP) (2003) {Concord}

Posted By: TestTickles
Ozomatli - Coming Up (enhanced EP) (2003) {Concord}

Ozomatli - Coming Up (enhanced EP) (2003) {Concord}
EAC Rip | FLAC with CUE and log | scans | 368 mb
MP3 CBR 320kbps | RAR | 238 mb
Genre: Latin pop, Latin rock, hip-hop, rap

Coming Up is a 2003 EP by American Latin rock/pop band Ozomatli. This was their first release as part of the Concord Records family and is an enhanced CD, featuring two videos. It also features a song where Ozomatli collaborate with A.B. Quintanilla III & Kumbia Kings.

Ozomatli - Coming Up (enhanced EP) (2003) {Concord}

1. Pensando En Mi Vida
2. Let Me Dream
3. Esa Morena
4. Ya Viene El Sol
5. A.B. Quintanilla III & Kumbia Kings featuring Ozomatli - Mi Gente
6. Coming Up/Cumbia Le Los Muertos (Live)

Exact Audio Copy V1.0 beta 6 from 9. April 2015

EAC extraction logfile from 14. June 2018, 13:00

Ozomatli / Coming Up (EP)

Used drive : TSSTcorpDVD+-RW TS-L633C Adapter: 1 ID: 0

Read mode : Secure
Utilize accurate stream : Yes
Defeat audio cache : Yes
Make use of C2 pointers : No

Read offset correction : 6
Overread into Lead-In and Lead-Out : No
Fill up missing offset samples with silence : Yes
Delete leading and trailing silent blocks : No
Null samples used in CRC calculations : Yes
Used interface : Native Win32 interface for Win NT & 2000
Gap handling : Appended to previous track

Used output format : Internal WAV Routines
Sample format : 44.100 Hz; 16 Bit; Stereo


TOC of the extracted CD

Track | Start | Length | Start sector | End sector
––––––––––––––––––––––––––––-
1 | 0:00.00 | 4:18.02 | 0 | 19351
2 | 4:18.02 | 3:10.13 | 19352 | 33614
3 | 7:28.15 | 3:29.58 | 33615 | 49347
4 | 10:57.73 | 5:20.60 | 49348 | 73407
5 | 16:18.58 | 4:21.23 | 73408 | 93005
6 | 20:40.06 | 6:46.61 | 93006 | 123516
7 | 29:58.67 | 16:36.26 | 134917 | 209642


Track 1

Filename C:\My Documents\My FLAC\Ozomatli - Coming Up (enhanced EP) (2003) [FLAC] {Concord}\01 - Ozomatli - Pensando En Mi Vida.wav

Pre-gap length 0:00:02.00

Peak level 99.9 %
Extraction speed 2.5 X
Track quality 100.0 %
Test CRC 8E50B7C9
Copy CRC 8E50B7C9
Accurately ripped (confidence 8) [AE4992D3] (AR v2)
Copy OK

Track 2

Filename C:\My Documents\My FLAC\Ozomatli - Coming Up (enhanced EP) (2003) [FLAC] {Concord}\02 - Ozomatli - Let Me Dream.wav

Peak level 100.0 %
Extraction speed 2.7 X
Track quality 100.0 %
Test CRC B291E8BD
Copy CRC B291E8BD
Accurately ripped (confidence 8) [AD5EF73C] (AR v2)
Copy OK

Track 3

Filename C:\My Documents\My FLAC\Ozomatli - Coming Up (enhanced EP) (2003) [FLAC] {Concord}\03 - Ozomatli - Esa Morena.wav

Peak level 99.9 %
Extraction speed 2.9 X
Track quality 100.0 %
Test CRC F1D61F3A
Copy CRC F1D61F3A
Accurately ripped (confidence 8) [77422B69] (AR v2)
Copy OK

Track 4

Filename C:\My Documents\My FLAC\Ozomatli - Coming Up (enhanced EP) (2003) [FLAC] {Concord}\04 - Ozomatli - Ya Viene El Sol.wav

Peak level 99.9 %
Extraction speed 3.3 X
Track quality 100.0 %
Test CRC D2600EC2
Copy CRC D2600EC2
Accurately ripped (confidence 8) [F11424F4] (AR v2)
Copy OK

Track 5

Filename C:\My Documents\My FLAC\Ozomatli - Coming Up (enhanced EP) (2003) [FLAC] {Concord}\05 - A.B. Quintanilla III & Kumbia Kings featuring Ozomatli - Mi Gente.wav

Peak level 99.8 %
Extraction speed 3.4 X
Track quality 100.0 %
Test CRC 70BC8041
Copy CRC 70BC8041
Accurately ripped (confidence 8) [31260376] (AR v2)
Copy OK

Track 6

Filename C:\My Documents\My FLAC\Ozomatli - Coming Up (enhanced EP) (2003) [FLAC] {Concord}\06 - Ozomatli - Coming Up,Cumbia Le Los Muertos (Live).wav

Peak level 99.9 %
Extraction speed 3.8 X
Track quality 100.0 %
Test CRC BCC8A165
Copy CRC BCC8A165
Accurately ripped (confidence 8) [6233A523] (AR v2)
Copy OK


All tracks accurately ripped

No errors occurred

End of status report

–– CUETools DB Plugin V2.1.6

[CTDB TOCID: whDxgpGLW4viVojtYJRbPzEJcBo-] found
Submit result: whDxgpGLW4viVojtYJRbPzEJcBo- has been confirmed
Track | CTDB Status
1 | (21/21) Accurately ripped
2 | (21/21) Accurately ripped
3 | (21/21) Accurately ripped
4 | (21/21) Accurately ripped
5 | (21/21) Accurately ripped
6 | (21/21) Accurately ripped


==== Log checksum 00289A3D6CB0F807A2B79F318D1EBE19BF76A43555571F4B714F067136FF02D4 ====


Ozomatli - Coming Up (enhanced EP) (2003) {Concord}