Subcategories

100 Best Guitar

Posted By: jhawd
100 Best Guitar

100 Best Guitar
EMI Classics, 2008 | XLD Rip | FLAC, CUE, Logs | 6 CDs, 1.7Gb @ Rapidshare

This 6 CD set contains an unrivalled collection of 100 favourite guitar classics, performed by some of the world’s leading artists. Among them are the guitarists Manuel Barrueco, Ernesto Bitetti, Carlos Bonell, Julian Bream, Julian Byzantine, Eliot Fisk, Oscar Ghiglia, Sharon Isbin, Wulfin Lieske, Christopher Parkening, Angel Romero, Dario Rossetti-Bonell and the legendary Andres Segovia, as well as the lutenist Anthony Bailes and the conductors Enrique Batiz, Elmer Bernstein, Andre Previn, Sir Simon Rattle and Antoni Ros-Marba.
Listen to samples
Detailed track list

CD01
1. Bach - Gavatte En Rondeau (3:12)
2. Dowland - Allemande (1:38)
3. Bach - Prelude (2:33)
4. Bach - Partita No.2 (4:54)
5. Froberger - Gigue (1:41)
6. Bach - Jesu, Joy Of Man's Desiring (3:13)
7. Vivaldi - Guitar Concerto In D (4:37)
8. De Visee - Suite No.11 (4:28)
9. Capirola - O Mio Cieca E Dura Sorte (2:21)
10. Scarlatti - Sonata In E (6:08)
11. Holborne - Countess Of Pembrokes Paradise (3:53)
12. Holborne - Heigh Ho Holiday (1:26)
13. De Narvaez - Variations On Guardam Las Vacas (3:05)
14. Gaultier - Pieces In G (6:08)
15. Praetorius - Suite In D (5:43)
16. Bach - Concerto In E (3:16)
17. Mouton - Pieces In F Sharp Minor (4:25)
18. Vallet - Carillon De Village (1:55)
19. Scarlatti - Sonata In A (3:42)
20. Weiss - Fantasie (2:32)
21. Vivaldi - Guitar Concerto In C (4:22)

CD02
1. Gaspar Sanz - La Minona De Cataluna (Arr. N. Yepes) (1:24)
2. Fernando Sor - Theme & Variations On A Theme From Mozart's The Magic Flute Op.9 (7:37)
3. Fernando Sor - Introduction And Allegro For Guitar Op.14 Grand Solo (8:50)
4. Isaac Albeniz - Suite Espanola No.1 For Piano Op.47 B.7 : 1. Granada (4:21)
5. Isaac Albeniz - Suite Espanola No.1 For Piano Op.47 B.7 : 3. Sevilla (4:18)
6. Francisco Tarrega - Capricho (5:17)
7. Francisco Tarrega - Lagrima (1:41)
8. Francisco Tarrega - Maria, Gavotte (1:36)
9. Francisco Tarrega - Mazurka (1:47)
10. Francisco Tarrega - Recuerdos De La Alhambra (5:27)
11. Isaac Albeniz - Recuerdos De Viaje, Op.71 B.18 : 1. En El Mar (Barcarola) (5:46)
12. Isaac Albeniz - Recuerdos De Viaje, Op.71 B.18 : 2. Asturias (Leyenda) (7:15)
13. Isaac Albeniz - Recuerdos De Viaje, Op.71 B.18 : 5. Puerta Di Tierre (Bolero) (3:37)
14. Isaac Albeniz - Recuerdos De Viaje, Op.71 B.18 : 6. Rumores De La Caleta (Malaguena) (4:18)
15. Joaquin Malats - Serenata Espanola For Piano In F Major (3:48)
16. Miguel Llobet - Canso Del Lladre (From Canciones Populares Catalanas) (1:39)

CD03
1. Various - Jeux Interdits, romance for guitar - Anonymous (2:36)
2. Various - El Sombrero de tres picos, ballet in 2 parts, G. 53: Night - The Miller's Dance - Manuel de Falla (6:36)
3. Various - El Sombrero de tres picos, ballet in 2 parts, G. 53: The Corregidor - Dance of the Miller's Wife - Manuel de Falla (6:22)
4. Various - Sonata a la espanola, for guitar - Joaquin Rodrigo (7:40)
5. Various - La maja de Goya, song for soprano & piano (Tonadillas al estilo antiguo, No. 8), H. 136/8 - Enrique Granados (4:28)
6. Various - Andaluza (Playera), for guitar or other instrument (arrangement of No. 5 of 12 Spanish Dances) - Enrique Granados (4:45)
7. Various - Homenaje a TГЎrrega, for guitar, Op. 69 - Joaquin Turina (4:39)
8. Various - Valses poГ©ticos (7), for piano, H. 147, DLR 7:8: Introduction - Valse 1 - Valse 6 - Coda - Enrique Granados (8:32)
9. Various - Homenaje pour Le tombeau de Claude Debussy, for guitar, G. 56 - Manuel de Falla (2:40)
10. Various - Invocacion y danza, for guitar (Homenaje a Manuel de Falla) - Joaquin Rodrigo (7:34)
11. Various - Piezas (3) espanolas, for guitar 1 - Joaquin Rodrigo (3:49)
12. Various - Piezas (3) espanolas, for guitar 2 - Joaquin Rodrigo (4:37)
13. Various - Piezas (3) espanolas, for guitar 3 - Joaquin Rodrigo (2:59)


CD04
1. Various - Concierto De Aranjuez - Rodrigo (6:08)
2. Various - Concierto De Aranjuez - Rodrigo (10:48)
3. Various - Concierto De Aranjuez - Rodrigo (5:01)
4. Various - Concierto Madrigal (2:02)
5. Various - Concierto Madrigal (3:41)
6. Various - Concierto Madrigal (2:21)
7. Various - Concierto Madrigal (6:01)
8. Various - Concierto Madrigal (6:37)
9. Various - Concierto Anduluz (8:43)
10. Various - Fantasia Para Un Gentilhombre (4:34)
11. Various - Fantasia Para Un Gentilhombre (8:59)
12. Various - Fantasia Para Un Gentilhombre (2:07)
13. Various - Fantasia Para Un Gentilhombre (5:09)

CD05
1. Barrios Mangore - Aconquija (3:25)
2. Barrios Mangore - Las Abeias (1:54)
3. Villa Lobos - Chorus No.1 (4:54)
4. Villa Lobos - Etude No.1 (2:05)
5. Barrios Mangore - Cueca Dana Chilena (3:27)
6. Barrios Mangore - La Catedral (6:40)
7. Aguirre - Triste No.4 (2:23)
8. Barrios Mangore - Valse (5:01)
9. Barrios Mangore - Mzurka Apasionata (6:26)
10. Villa Lobos - Three Preludes (4:46)
11. Villa Lobos - Three Preludes (7:29)
12. Villa Lobos - Three Preludes (3:54)
13. Villa Lobos - Three Preludes (5:43)
14. Ponce - Estrillita (3:00)
15. Piazzolla - La Muerte Del Angel (5:07)
16. Lauro - Danza Negra (3:45)
17. Lauro - Valse (2:59)
18. Lauro - Valse No.3 Natalia (2:45)

CD06
1. Various - Arnold - Guitar concerto (6:23)
2. Various - Sainz de la Maza - Homenaje a la guitarra (7:17)
3. Various - Lennon & McCartney - Penny Lane (2:06)
4. Various - Elmer Bernstein - Guitar concerto (4:05)
5. Various - Lennon & McCartney - Yesterday (3:17)
6. Various - Harrisson - Bookends (2:35)
7. Various - Lennon & McCartney - Eleanor Rigby (4:49)
8. Various - Jarret - Koln Concert (6:10)
9. Various - Brouwer - Ojos brujos (1:45)
10. Various - Brouwer - Guijira criolla (2:16)
11. Various - Segovia - Estudio sin Luz (3:00)
12. Various - Moreno-Torroba - Madronos (2:47)
13. Various - Buenagu - Sonata (3:17)
14. Various - Moreno-Torroba - Sonatina (3:59)
15. Various - Satie - GymnopГ©die NВ°1 (3:17)
16. Various - Britten - Nocturnal (1:27)
17. Various - Walton - Bagatelle (2:09)
18. Various - Mompou - Cancion (3:00)
19. Various - Castelnuovo-Tedesco - Tarentella (3:56)


X Lossless Decoder version 20090320 (105.1)

XLD extraction logfile from 2009-04-25 10:46:10 +0400

Various Artists / Best Guitar 100 CD1

Used drive : OPTIARC DVD RW AD-7170A (revision 1.NC)

Use cdparanoia mode : YES (CDParanoia III 10.2 engine)
Disable audio cache : OK for the drive with cache less than 2750KB
Make use of C2 pointers : NO
Read offset correction : 48
Max retry count : 100

TOC of the extracted CD
Track | Start | Length | Start sector | End sector
––––––––––––––––––––––––––––-
1 | 00:00:00 | 03:12:02 | 0 | 14401
2 | 03:12:02 | 01:38:65 | 14402 | 21816
3 | 04:50:67 | 02:33:66 | 21817 | 33357
4 | 07:24:58 | 04:54:35 | 33358 | 55442
5 | 12:19:18 | 01:41:20 | 55443 | 63037
6 | 14:00:38 | 03:13:23 | 63038 | 77535
7 | 17:13:61 | 04:37:56 | 77536 | 98366
8 | 21:51:42 | 04:28:47 | 98367 | 118513
9 | 26:20:14 | 02:21:18 | 118514 | 129106
10 | 28:41:32 | 06:08:56 | 129107 | 156762
11 | 34:50:13 | 03:53:18 | 156763 | 174255
12 | 38:43:31 | 01:26:35 | 174256 | 180740
13 | 40:09:66 | 03:05:39 | 180741 | 194654
14 | 43:15:30 | 06:08:31 | 194655 | 222285
15 | 49:23:61 | 05:43:15 | 222286 | 248025
16 | 55:07:01 | 03:16:66 | 248026 | 262791
17 | 58:23:67 | 04:25:32 | 262792 | 282698
18 | 62:49:24 | 01:55:58 | 282699 | 291381
19 | 64:45:07 | 03:42:02 | 291382 | 308033
20 | 68:27:09 | 02:32:66 | 308034 | 319499
21 | 71:00:00 | 04:22:21 | 319500 | 339170


All Tracks
Filename : /Users/mac/Music/Ripping/100 best guitar/Best Guitar 100 CD1.flac
CRC32 hash : 3C48C4F7
CRC32 hash (skip zero) : 0625A98B
Statistics
Read error : 0
Skipped (treated as error) : 0
Edge jitter error (maybe fixed) : 0
Atom jitter error (maybe fixed) : 0
Drift error (maybe fixed) : 0
Dropped bytes error (maybe fixed) : 0
Duplicated bytes error (maybe fixed) : 0

Track 01
CRC32 hash : 740CD4FC
CRC32 hash (skip zero) : 51AEDCD8
AccurateRip signature : DFA955FB
->Accurately ripped! (confidence 2)
Statistics
Read error : 0
Skipped (treated as error) : 0
Edge jitter error (maybe fixed) : 0
Atom jitter error (maybe fixed) : 0
Drift error (maybe fixed) : 0
Dropped bytes error (maybe fixed) : 0
Duplicated bytes error (maybe fixed) : 0

Track 02
CRC32 hash : 442AF027
CRC32 hash (skip zero) : FFD0EDB2
AccurateRip signature : 27C65D0A
->Accurately ripped! (confidence 2)
Statistics
Read error : 0
Skipped (treated as error) : 0
Edge jitter error (maybe fixed) : 0
Atom jitter error (maybe fixed) : 0
Drift error (maybe fixed) : 0
Dropped bytes error (maybe fixed) : 0
Duplicated bytes error (maybe fixed) : 0

Track 03
CRC32 hash : DE0E6D09
CRC32 hash (skip zero) : 0355EACD
AccurateRip signature : EF1E7DFE
->Accurately ripped! (confidence 2)
Statistics
Read error : 0
Skipped (treated as error) : 0
Edge jitter error (maybe fixed) : 0
Atom jitter error (maybe fixed) : 0
Drift error (maybe fixed) : 0
Dropped bytes error (maybe fixed) : 0
Duplicated bytes error (maybe fixed) : 0

Track 04
CRC32 hash : 8855749D
CRC32 hash (skip zero) : FE954C03
AccurateRip signature : 201B568A
->Accurately ripped! (confidence 2)
Statistics
Read error : 0
Skipped (treated as error) : 0
Edge jitter error (maybe fixed) : 0
Atom jitter error (maybe fixed) : 0
Drift error (maybe fixed) : 0
Dropped bytes error (maybe fixed) : 0
Duplicated bytes error (maybe fixed) : 0

Track 05
CRC32 hash : A15D7EB6
CRC32 hash (skip zero) : 0A0834CA
AccurateRip signature : FDAF59EE
->Accurately ripped! (confidence 2)
Statistics
Read error : 0
Skipped (treated as error) : 0
Edge jitter error (maybe fixed) : 0
Atom jitter error (maybe fixed) : 0
Drift error (maybe fixed) : 0
Dropped bytes error (maybe fixed) : 0
Duplicated bytes error (maybe fixed) : 0

Track 06
CRC32 hash : DD8F38BD
CRC32 hash (skip zero) : 84C0FCDC
AccurateRip signature : 4A00EAC1
->Accurately ripped! (confidence 2)
Statistics
Read error : 0
Skipped (treated as error) : 0
Edge jitter error (maybe fixed) : 0
Atom jitter error (maybe fixed) : 0
Drift error (maybe fixed) : 0
Dropped bytes error (maybe fixed) : 0
Duplicated bytes error (maybe fixed) : 0

Track 07
CRC32 hash : 55551995
CRC32 hash (skip zero) : 604DBD41
AccurateRip signature : EDEC6BE0
->Accurately ripped! (confidence 2)
Statistics
Read error : 0
Skipped (treated as error) : 0
Edge jitter error (maybe fixed) : 0
Atom jitter error (maybe fixed) : 0
Drift error (maybe fixed) : 0
Dropped bytes error (maybe fixed) : 0
Duplicated bytes error (maybe fixed) : 0

Track 08
CRC32 hash : 1EFC50E6
CRC32 hash (skip zero) : EF294134
AccurateRip signature : 1AEDA9B5
->Accurately ripped! (confidence 2)
Statistics
Read error : 0
Skipped (treated as error) : 0
Edge jitter error (maybe fixed) : 0
Atom jitter error (maybe fixed) : 0
Drift error (maybe fixed) : 0
Dropped bytes error (maybe fixed) : 0
Duplicated bytes error (maybe fixed) : 0

Track 09
CRC32 hash : 2FAA2F75
CRC32 hash (skip zero) : FF5E07A2
AccurateRip signature : 91109C05
->Accurately ripped! (confidence 2)
Statistics
Read error : 0
Skipped (treated as error) : 0
Edge jitter error (maybe fixed) : 0
Atom jitter error (maybe fixed) : 0
Drift error (maybe fixed) : 0
Dropped bytes error (maybe fixed) : 0
Duplicated bytes error (maybe fixed) : 0

Track 10
CRC32 hash : 83A5E728
CRC32 hash (skip zero) : 1447852A
AccurateRip signature : 88541A4D
->Accurately ripped! (confidence 2)
Statistics
Read error : 0
Skipped (treated as error) : 0
Edge jitter error (maybe fixed) : 0
Atom jitter error (maybe fixed) : 0
Drift error (maybe fixed) : 0
Dropped bytes error (maybe fixed) : 0
Duplicated bytes error (maybe fixed) : 0

Track 11
CRC32 hash : 53620774
CRC32 hash (skip zero) : 39EBBECE
AccurateRip signature : B743C719
->Accurately ripped! (confidence 2)
Statistics
Read error : 0
Skipped (treated as error) : 0
Edge jitter error (maybe fixed) : 0
Atom jitter error (maybe fixed) : 0
Drift error (maybe fixed) : 0
Dropped bytes error (maybe fixed) : 0
Duplicated bytes error (maybe fixed) : 0

Track 12
CRC32 hash : 8777F523
CRC32 hash (skip zero) : 8938B721
AccurateRip signature : 9FBA5EE7
->Accurately ripped! (confidence 2)
Statistics
Read error : 0
Skipped (treated as error) : 0
Edge jitter error (maybe fixed) : 0
Atom jitter error (maybe fixed) : 0
Drift error (maybe fixed) : 0
Dropped bytes error (maybe fixed) : 0
Duplicated bytes error (maybe fixed) : 0

Track 13
CRC32 hash : FD969D68
CRC32 hash (skip zero) : 8E7279E5
AccurateRip signature : 666A91D8
->Accurately ripped! (confidence 2)
Statistics
Read error : 0
Skipped (treated as error) : 0
Edge jitter error (maybe fixed) : 0
Atom jitter error (maybe fixed) : 0
Drift error (maybe fixed) : 0
Dropped bytes error (maybe fixed) : 0
Duplicated bytes error (maybe fixed) : 0

Track 14
CRC32 hash : 42ED9F75
CRC32 hash (skip zero) : 62F3CDD2
AccurateRip signature : 1FF067EB
->Accurately ripped! (confidence 2)
Statistics
Read error : 0
Skipped (treated as error) : 0
Edge jitter error (maybe fixed) : 0
Atom jitter error (maybe fixed) : 0
Drift error (maybe fixed) : 0
Dropped bytes error (maybe fixed) : 0
Duplicated bytes error (maybe fixed) : 0

Track 15
CRC32 hash : 24E2AD68
CRC32 hash (skip zero) : 424D8DE4
AccurateRip signature : FB099D41
->Accurately ripped! (confidence 2)
Statistics
Read error : 0
Skipped (treated as error) : 0
Edge jitter error (maybe fixed) : 0
Atom jitter error (maybe fixed) : 0
Drift error (maybe fixed) : 0
Dropped bytes error (maybe fixed) : 0
Duplicated bytes error (maybe fixed) : 0

Track 16
CRC32 hash : E448BD80
CRC32 hash (skip zero) : D828064D
AccurateRip signature : 0ED917BD
->Accurately ripped! (confidence 2)
Statistics
Read error : 0
Skipped (treated as error) : 0
Edge jitter error (maybe fixed) : 0
Atom jitter error (maybe fixed) : 0
Drift error (maybe fixed) : 0
Dropped bytes error (maybe fixed) : 0
Duplicated bytes error (maybe fixed) : 0

Track 17
CRC32 hash : 7202CFFB
CRC32 hash (skip zero) : 562DB687
AccurateRip signature : D898E427
->Accurately ripped! (confidence 2)
Statistics
Read error : 0
Skipped (treated as error) : 0
Edge jitter error (maybe fixed) : 0
Atom jitter error (maybe fixed) : 0
Drift error (maybe fixed) : 0
Dropped bytes error (maybe fixed) : 0
Duplicated bytes error (maybe fixed) : 0

Track 18
CRC32 hash : E51FD54B
CRC32 hash (skip zero) : F46D4162
AccurateRip signature : 1F757C7C
->Accurately ripped! (confidence 2)
Statistics
Read error : 0
Skipped (treated as error) : 0
Edge jitter error (maybe fixed) : 0
Atom jitter error (maybe fixed) : 0
Drift error (maybe fixed) : 0
Dropped bytes error (maybe fixed) : 0
Duplicated bytes error (maybe fixed) : 0

Track 19
CRC32 hash : DA0B4DA8
CRC32 hash (skip zero) : 8992B219
AccurateRip signature : 55E453AE
->Accurately ripped! (confidence 2)
Statistics
Read error : 0
Skipped (treated as error) : 0
Edge jitter error (maybe fixed) : 0
Atom jitter error (maybe fixed) : 0
Drift error (maybe fixed) : 0
Dropped bytes error (maybe fixed) : 0
Duplicated bytes error (maybe fixed) : 0

Track 20
CRC32 hash : DC2E41B9
CRC32 hash (skip zero) : 0B21D7F0
AccurateRip signature : 11220BAA
->Accurately ripped! (confidence 2)
Statistics
Read error : 0
Skipped (treated as error) : 0
Edge jitter error (maybe fixed) : 0
Atom jitter error (maybe fixed) : 0
Drift error (maybe fixed) : 0
Dropped bytes error (maybe fixed) : 0
Duplicated bytes error (maybe fixed) : 0

Track 21
CRC32 hash : 0F752583
CRC32 hash (skip zero) : A4F075AA
AccurateRip signature : F1EAB80D
->Accurately ripped! (confidence 2)
Statistics
Read error : 0
Skipped (treated as error) : 0
Edge jitter error (maybe fixed) : 0
Atom jitter error (maybe fixed) : 0
Drift error (maybe fixed) : 0
Dropped bytes error (maybe fixed) : 0
Duplicated bytes error (maybe fixed) : 0

No errors occurred

End of status report
X Lossless Decoder version 20090320 (105.1)

XLD extraction logfile from 2009-04-25 11:00:18 +0400

Various Artists / Best Guitar 100 CD2

Used drive : OPTIARC DVD RW AD-7170A (revision 1.NC)

Use cdparanoia mode : YES (CDParanoia III 10.2 engine)
Disable audio cache : OK for the drive with cache less than 2750KB
Make use of C2 pointers : NO
Read offset correction : 48
Max retry count : 100

TOC of the extracted CD
Track | Start | Length | Start sector | End sector
––––––––––––––––––––––––––––-
1 | 00:00:00 | 01:24:25 | 0 | 6324
2 | 01:24:25 | 07:37:58 | 6325 | 40657
3 | 09:02:08 | 08:50:26 | 40658 | 80433
4 | 17:52:34 | 04:21:15 | 80434 | 100023
5 | 22:13:49 | 04:18:24 | 100024 | 119397
6 | 26:31:73 | 05:17:44 | 119398 | 143216
7 | 31:49:42 | 01:41:12 | 143217 | 150803
8 | 33:30:54 | 01:36:42 | 150804 | 158045
9 | 35:07:21 | 01:47:43 | 158046 | 166113
10 | 36:54:64 | 05:27:11 | 166114 | 190649
11 | 42:22:00 | 05:46:13 | 190650 | 216612
12 | 48:08:13 | 07:15:70 | 216613 | 249307
13 | 55:24:08 | 03:37:25 | 249308 | 265607
14 | 59:01:33 | 04:18:23 | 265608 | 284980
15 | 63:19:56 | 03:48:11 | 284981 | 302091
16 | 67:07:67 | 01:39:50 | 302092 | 309566


All Tracks
Filename : /Users/mac/Music/Ripping/100 best guitar/Best Guitar 100 CD2.flac
CRC32 hash : 10FDDC9F
CRC32 hash (skip zero) : 7DE3A138
Statistics
Read error : 0
Skipped (treated as error) : 0
Edge jitter error (maybe fixed) : 2
Atom jitter error (maybe fixed) : 1
Drift error (maybe fixed) : 0
Dropped bytes error (maybe fixed) : 1
Duplicated bytes error (maybe fixed) : 1

Track 01
CRC32 hash : 4B6B7467
CRC32 hash (skip zero) : 7F2EC6C2
AccurateRip signature : 08C17BD4
->Accurately ripped! (confidence 2)
Statistics
Read error : 0
Skipped (treated as error) : 0
Edge jitter error (maybe fixed) : 0
Atom jitter error (maybe fixed) : 0
Drift error (maybe fixed) : 0
Dropped bytes error (maybe fixed) : 0
Duplicated bytes error (maybe fixed) : 0

Track 02
CRC32 hash : A0F7C05E
CRC32 hash (skip zero) : 1025608E
AccurateRip signature : 7936B7DE
->Accurately ripped! (confidence 2)
Statistics
Read error : 0
Skipped (treated as error) : 0
Edge jitter error (maybe fixed) : 0
Atom jitter error (maybe fixed) : 0
Drift error (maybe fixed) : 0
Dropped bytes error (maybe fixed) : 0
Duplicated bytes error (maybe fixed) : 0

Track 03
CRC32 hash : 4B262A06
CRC32 hash (skip zero) : ECD633F5
AccurateRip signature : 88086424
->Accurately ripped! (confidence 2)
Statistics
Read error : 0
Skipped (treated as error) : 0
Edge jitter error (maybe fixed) : 2
Atom jitter error (maybe fixed) : 1
Drift error (maybe fixed) : 0
Dropped bytes error (maybe fixed) : 1
Duplicated bytes error (maybe fixed) : 1

Track 04
CRC32 hash : 6435547E
CRC32 hash (skip zero) : D61178B6
AccurateRip signature : 827B6C5B
->Accurately ripped! (confidence 2)
Statistics
Read error : 0
Skipped (treated as error) : 0
Edge jitter error (maybe fixed) : 0
Atom jitter error (maybe fixed) : 0
Drift error (maybe fixed) : 0
Dropped bytes error (maybe fixed) : 0
Duplicated bytes error (maybe fixed) : 0

Track 05
CRC32 hash : 5D1AB5BA
CRC32 hash (skip zero) : 1D76C356
AccurateRip signature : 2779B231
->Accurately ripped! (confidence 2)
Statistics
Read error : 0
Skipped (treated as error) : 0
Edge jitter error (maybe fixed) : 0
Atom jitter error (maybe fixed) : 0
Drift error (maybe fixed) : 0
Dropped bytes error (maybe fixed) : 0
Duplicated bytes error (maybe fixed) : 0

Track 06
CRC32 hash : F27B026E
CRC32 hash (skip zero) : 5F8A19A6
AccurateRip signature : 164B9A44
->Accurately ripped! (confidence 2)
Statistics
Read error : 0
Skipped (treated as error) : 0
Edge jitter error (maybe fixed) : 0
Atom jitter error (maybe fixed) : 0
Drift error (maybe fixed) : 0
Dropped bytes error (maybe fixed) : 0
Duplicated bytes error (maybe fixed) : 0

Track 07
CRC32 hash : E0EACB86
CRC32 hash (skip zero) : EDAED9F0
AccurateRip signature : 1FDFB890
->Accurately ripped! (confidence 2)
Statistics
Read error : 0
Skipped (treated as error) : 0
Edge jitter error (maybe fixed) : 0
Atom jitter error (maybe fixed) : 0
Drift error (maybe fixed) : 0
Dropped bytes error (maybe fixed) : 0
Duplicated bytes error (maybe fixed) : 0

Track 08
CRC32 hash : 21B01209
CRC32 hash (skip zero) : AFE2F8B6
AccurateRip signature : 1263BAE5
->Accurately ripped! (confidence 2)
Statistics
Read error : 0
Skipped (treated as error) : 0
Edge jitter error (maybe fixed) : 0
Atom jitter error (maybe fixed) : 0
Drift error (maybe fixed) : 0
Dropped bytes error (maybe fixed) : 0
Duplicated bytes error (maybe fixed) : 0

Track 09
CRC32 hash : F0C0B4FF
CRC32 hash (skip zero) : 0352A219
AccurateRip signature : 5022CD2B
->Accurately ripped! (confidence 2)
Statistics
Read error : 0
Skipped (treated as error) : 0
Edge jitter error (maybe fixed) : 0
Atom jitter error (maybe fixed) : 0
Drift error (maybe fixed) : 0
Dropped bytes error (maybe fixed) : 0
Duplicated bytes error (maybe fixed) : 0

Track 10
CRC32 hash : A90208CA
CRC32 hash (skip zero) : AD200FE7
AccurateRip signature : 5366253F
->Accurately ripped! (confidence 2)
Statistics
Read error : 0
Skipped (treated as error) : 0
Edge jitter error (maybe fixed) : 0
Atom jitter error (maybe fixed) : 0
Drift error (maybe fixed) : 0
Dropped bytes error (maybe fixed) : 0
Duplicated bytes error (maybe fixed) : 0

Track 11
CRC32 hash : E9B94AC7
CRC32 hash (skip zero) : 30809700
AccurateRip signature : 369576B7
->Accurately ripped! (confidence 2)
Statistics
Read error : 0
Skipped (treated as error) : 0
Edge jitter error (maybe fixed) : 0
Atom jitter error (maybe fixed) : 0
Drift error (maybe fixed) : 0
Dropped bytes error (maybe fixed) : 0
Duplicated bytes error (maybe fixed) : 0

Track 12
CRC32 hash : 48046F7E
CRC32 hash (skip zero) : D5012CDA
AccurateRip signature : F962BC32
->Accurately ripped! (confidence 2)
Statistics
Read error : 0
Skipped (treated as error) : 0
Edge jitter error (maybe fixed) : 0
Atom jitter error (maybe fixed) : 0
Drift error (maybe fixed) : 0
Dropped bytes error (maybe fixed) : 0
Duplicated bytes error (maybe fixed) : 0

Track 13
CRC32 hash : B0F80F61
CRC32 hash (skip zero) : 5334602E
AccurateRip signature : 039CCB46
->Accurately ripped! (confidence 2)
Statistics
Read error : 0
Skipped (treated as error) : 0
Edge jitter error (maybe fixed) : 0
Atom jitter error (maybe fixed) : 0
Drift error (maybe fixed) : 0
Dropped bytes error (maybe fixed) : 0
Duplicated bytes error (maybe fixed) : 0

Track 14
CRC32 hash : 29AF7B27
CRC32 hash (skip zero) : B955B8BC
AccurateRip signature : 75315269
->Accurately ripped! (confidence 2)
Statistics
Read error : 0
Skipped (treated as error) : 0
Edge jitter error (maybe fixed) : 0
Atom jitter error (maybe fixed) : 0
Drift error (maybe fixed) : 0
Dropped bytes error (maybe fixed) : 0
Duplicated bytes error (maybe fixed) : 0

Track 15
CRC32 hash : 16DCED92
CRC32 hash (skip zero) : 8CD0F28A
AccurateRip signature : 7BAEE870
->Accurately ripped! (confidence 2)
Statistics
Read error : 0
Skipped (treated as error) : 0
Edge jitter error (maybe fixed) : 0
Atom jitter error (maybe fixed) : 0
Drift error (maybe fixed) : 0
Dropped bytes error (maybe fixed) : 0
Duplicated bytes error (maybe fixed) : 0

Track 16
CRC32 hash : 892C7F7A
CRC32 hash (skip zero) : A07FB0A0
AccurateRip signature : 5AB2E410
->Accurately ripped! (confidence 2)
Statistics
Read error : 0
Skipped (treated as error) : 0
Edge jitter error (maybe fixed) : 0
Atom jitter error (maybe fixed) : 0
Drift error (maybe fixed) : 0
Dropped bytes error (maybe fixed) : 0
Duplicated bytes error (maybe fixed) : 0

No errors occurred

End of status report
X Lossless Decoder version 20090320 (105.1)

XLD extraction logfile from 2009-04-25 11:17:27 +0400

Various / Best Guitar 100 CD3

Used drive : OPTIARC DVD RW AD-7170A (revision 1.NC)

Use cdparanoia mode : YES (CDParanoia III 10.2 engine)
Disable audio cache : OK for the drive with cache less than 2750KB
Make use of C2 pointers : NO
Read offset correction : 48
Max retry count : 100

TOC of the extracted CD
Track | Start | Length | Start sector | End sector
––––––––––––––––––––––––––––-
1 | 00:00:00 | 02:36:02 | 0 | 11701
2 | 02:36:02 | 06:36:46 | 11702 | 41447
3 | 09:12:48 | 06:22:65 | 41448 | 70162
4 | 15:35:38 | 07:40:51 | 70163 | 104713
5 | 23:16:14 | 04:28:23 | 104714 | 124836
6 | 27:44:37 | 04:45:32 | 124837 | 146243
7 | 32:29:69 | 04:39:60 | 146244 | 167228
8 | 37:09:54 | 08:32:11 | 167229 | 205639
9 | 45:41:65 | 02:40:48 | 205640 | 217687
10 | 48:22:38 | 07:34:00 | 217688 | 251737
11 | 55:56:38 | 03:49:31 | 251738 | 268943
12 | 59:45:69 | 04:37:29 | 268944 | 289747
13 | 64:23:23 | 02:59:54 | 289748 | 303226


All Tracks
Filename : /Users/mac/Music/Ripping/100 best guitar/Best Guitar 100 CD3.flac
CRC32 hash : 41750CFD
CRC32 hash (skip zero) : D7E48F3A
Statistics
Read error : 0
Skipped (treated as error) : 0
Edge jitter error (maybe fixed) : 4
Atom jitter error (maybe fixed) : 3
Drift error (maybe fixed) : 0
Dropped bytes error (maybe fixed) : 2
Duplicated bytes error (maybe fixed) : 2

Track 01
CRC32 hash : 51D79BEF
CRC32 hash (skip zero) : A3F563FA
AccurateRip signature : 702325C1
->Accurately ripped! (confidence 2)
Statistics
Read error : 0
Skipped (treated as error) : 0
Edge jitter error (maybe fixed) : 2
Atom jitter error (maybe fixed) : 1
Drift error (maybe fixed) : 0
Dropped bytes error (maybe fixed) : 1
Duplicated bytes error (maybe fixed) : 1

Track 02
CRC32 hash : 38CE6E5F
CRC32 hash (skip zero) : F34203EC
AccurateRip signature : 920D75DB
->Accurately ripped! (confidence 2)
Statistics
Read error : 0
Skipped (treated as error) : 0
Edge jitter error (maybe fixed) : 0
Atom jitter error (maybe fixed) : 0
Drift error (maybe fixed) : 0
Dropped bytes error (maybe fixed) : 0
Duplicated bytes error (maybe fixed) : 0

Track 03
CRC32 hash : A55BDE47
CRC32 hash (skip zero) : ABEB81E6
AccurateRip signature : 9E4ACEF4
->Accurately ripped! (confidence 2)
Statistics
Read error : 0
Skipped (treated as error) : 0
Edge jitter error (maybe fixed) : 0
Atom jitter error (maybe fixed) : 0
Drift error (maybe fixed) : 0
Dropped bytes error (maybe fixed) : 0
Duplicated bytes error (maybe fixed) : 0

Track 04
CRC32 hash : 39401830
CRC32 hash (skip zero) : FA254CB9
AccurateRip signature : 61A22E4E
->Accurately ripped! (confidence 2)
Statistics
Read error : 0
Skipped (treated as error) : 0
Edge jitter error (maybe fixed) : 0
Atom jitter error (maybe fixed) : 0
Drift error (maybe fixed) : 0
Dropped bytes error (maybe fixed) : 0
Duplicated bytes error (maybe fixed) : 0

Track 05
CRC32 hash : 39664E21
CRC32 hash (skip zero) : B0EB345E
AccurateRip signature : 304ED711
->Accurately ripped! (confidence 2)
Statistics
Read error : 0
Skipped (treated as error) : 0
Edge jitter error (maybe fixed) : 0
Atom jitter error (maybe fixed) : 1
Drift error (maybe fixed) : 0
Dropped bytes error (maybe fixed) : 0
Duplicated bytes error (maybe fixed) : 0

Track 06
CRC32 hash : 6DDBE370
CRC32 hash (skip zero) : 8DA7AE8E
AccurateRip signature : 64E7B95B
->Accurately ripped! (confidence 2)
Statistics
Read error : 0
Skipped (treated as error) : 0
Edge jitter error (maybe fixed) : 0
Atom jitter error (maybe fixed) : 0
Drift error (maybe fixed) : 0
Dropped bytes error (maybe fixed) : 0
Duplicated bytes error (maybe fixed) : 0

Track 07
CRC32 hash : 406699F7
CRC32 hash (skip zero) : A057C366
AccurateRip signature : 0FAC52C8
->Accurately ripped! (confidence 2)
Statistics
Read error : 0
Skipped (treated as error) : 0
Edge jitter error (maybe fixed) : 0
Atom jitter error (maybe fixed) : 0
Drift error (maybe fixed) : 0
Dropped bytes error (maybe fixed) : 0
Duplicated bytes error (maybe fixed) : 0

Track 08
CRC32 hash : 200E5BB2
CRC32 hash (skip zero) : 8BFF7386
AccurateRip signature : B56958C5
->Accurately ripped! (confidence 2)
Statistics
Read error : 0
Skipped (treated as error) : 0
Edge jitter error (maybe fixed) : 0
Atom jitter error (maybe fixed) : 0
Drift error (maybe fixed) : 0
Dropped bytes error (maybe fixed) : 0
Duplicated bytes error (maybe fixed) : 0

Track 09
CRC32 hash : 16AB7C97
CRC32 hash (skip zero) : 8D9A7B85
AccurateRip signature : 9D0BFD2E
->Accurately ripped! (confidence 2)
Statistics
Read error : 0
Skipped (treated as error) : 0
Edge jitter error (maybe fixed) : 0
Atom jitter error (maybe fixed) : 0
Drift error (maybe fixed) : 0
Dropped bytes error (maybe fixed) : 0
Duplicated bytes error (maybe fixed) : 0

Track 10
CRC32 hash : 7BBE051C
CRC32 hash (skip zero) : 1E6F59AB
AccurateRip signature : EB0891DB
->Accurately ripped! (confidence 2)
Statistics
Read error : 0
Skipped (treated as error) : 0
Edge jitter error (maybe fixed) : 0
Atom jitter error (maybe fixed) : 0
Drift error (maybe fixed) : 0
Dropped bytes error (maybe fixed) : 0
Duplicated bytes error (maybe fixed) : 0

Track 11
CRC32 hash : 04ED172E
CRC32 hash (skip zero) : 602299C6
AccurateRip signature : 12134189
->Accurately ripped! (confidence 2)
Statistics
Read error : 0
Skipped (treated as error) : 0
Edge jitter error (maybe fixed) : 2
Atom jitter error (maybe fixed) : 1
Drift error (maybe fixed) : 0
Dropped bytes error (maybe fixed) : 1
Duplicated bytes error (maybe fixed) : 1

Track 12
CRC32 hash : 490F66CF
CRC32 hash (skip zero) : F4802C16
AccurateRip signature : 86FF9976
->Accurately ripped! (confidence 2)
Statistics
Read error : 0
Skipped (treated as error) : 0
Edge jitter error (maybe fixed) : 0
Atom jitter error (maybe fixed) : 0
Drift error (maybe fixed) : 0
Dropped bytes error (maybe fixed) : 0
Duplicated bytes error (maybe fixed) : 0

Track 13
CRC32 hash : 9065486A
CRC32 hash (skip zero) : C74C021D
AccurateRip signature : F6414875
->Accurately ripped! (confidence 2)
Statistics
Read error : 0
Skipped (treated as error) : 0
Edge jitter error (maybe fixed) : 0
Atom jitter error (maybe fixed) : 0
Drift error (maybe fixed) : 0
Dropped bytes error (maybe fixed) : 0
Duplicated bytes error (maybe fixed) : 0

No errors occurred

End of status report
X Lossless Decoder version 20090320 (105.1)

XLD extraction logfile from 2009-04-25 11:29:41 +0400

Various / Best Guitar 100 CD4

Used drive : OPTIARC DVD RW AD-7170A (revision 1.NC)

Use cdparanoia mode : YES (CDParanoia III 10.2 engine)
Disable audio cache : OK for the drive with cache less than 2750KB
Make use of C2 pointers : NO
Read offset correction : 48
Max retry count : 100

TOC of the extracted CD
Track | Start | Length | Start sector | End sector
––––––––––––––––––––––––––––-
1 | 00:00:00 | 06:08:47 | 0 | 27646
2 | 06:08:47 | 10:48:65 | 27647 | 76311
3 | 16:57:37 | 05:01:17 | 76312 | 98903
4 | 21:58:54 | 02:02:34 | 98904 | 108087
5 | 24:01:13 | 03:41:18 | 108088 | 124680
6 | 27:42:31 | 02:21:66 | 124681 | 135321
7 | 30:04:22 | 06:01:61 | 135322 | 162457
8 | 36:06:08 | 06:37:34 | 162458 | 192266
9 | 42:43:42 | 08:43:70 | 192267 | 231561
10 | 51:27:37 | 04:34:30 | 231562 | 252141
11 | 56:01:67 | 08:59:49 | 252142 | 292615
12 | 65:01:41 | 02:07:16 | 292616 | 302156
13 | 67:08:57 | 05:09:74 | 302157 | 325405


All Tracks
Filename : /Users/mac/Music/Ripping/100 best guitar/Best Guitar 100 CD4.flac
CRC32 hash : B3ACA3E9
CRC32 hash (skip zero) : 0119FDB7
Statistics
Read error : 0
Skipped (treated as error) : 0
Edge jitter error (maybe fixed) : 0
Atom jitter error (maybe fixed) : 0
Drift error (maybe fixed) : 0
Dropped bytes error (maybe fixed) : 0
Duplicated bytes error (maybe fixed) : 0

Track 01
CRC32 hash : ED349E9D
CRC32 hash (skip zero) : 9685A4FE
AccurateRip signature : B60933A2
->Accurately ripped! (confidence 2)
Statistics
Read error : 0
Skipped (treated as error) : 0
Edge jitter error (maybe fixed) : 0
Atom jitter error (maybe fixed) : 0
Drift error (maybe fixed) : 0
Dropped bytes error (maybe fixed) : 0
Duplicated bytes error (maybe fixed) : 0

Track 02
CRC32 hash : 9F763BB9
CRC32 hash (skip zero) : 31BB6428
AccurateRip signature : DBD49FCD
->Accurately ripped! (confidence 2)
Statistics
Read error : 0
Skipped (treated as error) : 0
Edge jitter error (maybe fixed) : 0
Atom jitter error (maybe fixed) : 0
Drift error (maybe fixed) : 0
Dropped bytes error (maybe fixed) : 0
Duplicated bytes error (maybe fixed) : 0

Track 03
CRC32 hash : 212C6BAF
CRC32 hash (skip zero) : 186D1AC2
AccurateRip signature : 5E886D2A
->Accurately ripped! (confidence 2)
Statistics
Read error : 0
Skipped (treated as error) : 0
Edge jitter error (maybe fixed) : 0
Atom jitter error (maybe fixed) : 0
Drift error (maybe fixed) : 0
Dropped bytes error (maybe fixed) : 0
Duplicated bytes error (maybe fixed) : 0

Track 04
CRC32 hash : 6F7B7B46
CRC32 hash (skip zero) : 63170FF8
AccurateRip signature : 9436B7E6
->Accurately ripped! (confidence 2)
Statistics
Read error : 0
Skipped (treated as error) : 0
Edge jitter error (maybe fixed) : 0
Atom jitter error (maybe fixed) : 0
Drift error (maybe fixed) : 0
Dropped bytes error (maybe fixed) : 0
Duplicated bytes error (maybe fixed) : 0

Track 05
CRC32 hash : 2563585A
CRC32 hash (skip zero) : 7971A017
AccurateRip signature : 7E6B632C
->Accurately ripped! (confidence 2)
Statistics
Read error : 0
Skipped (treated as error) : 0
Edge jitter error (maybe fixed) : 0
Atom jitter error (maybe fixed) : 0
Drift error (maybe fixed) : 0
Dropped bytes error (maybe fixed) : 0
Duplicated bytes error (maybe fixed) : 0

Track 06
CRC32 hash : 4C7B3BFC
CRC32 hash (skip zero) : 1AF6B524
AccurateRip signature : E5BED435
->Accurately ripped! (confidence 2)
Statistics
Read error : 0
Skipped (treated as error) : 0
Edge jitter error (maybe fixed) : 0
Atom jitter error (maybe fixed) : 0
Drift error (maybe fixed) : 0
Dropped bytes error (maybe fixed) : 0
Duplicated bytes error (maybe fixed) : 0

Track 07
CRC32 hash : 8B447895
CRC32 hash (skip zero) : F7A9AE9E
AccurateRip signature : A6B4938A
->Accurately ripped! (confidence 2)
Statistics
Read error : 0
Skipped (treated as error) : 0
Edge jitter error (maybe fixed) : 0
Atom jitter error (maybe fixed) : 0
Drift error (maybe fixed) : 0
Dropped bytes error (maybe fixed) : 0
Duplicated bytes error (maybe fixed) : 0

Track 08
CRC32 hash : F897739C
CRC32 hash (skip zero) : D156A9DB
AccurateRip signature : B451C715
->Accurately ripped! (confidence 2)
Statistics
Read error : 0
Skipped (treated as error) : 0
Edge jitter error (maybe fixed) : 0
Atom jitter error (maybe fixed) : 0
Drift error (maybe fixed) : 0
Dropped bytes error (maybe fixed) : 0
Duplicated bytes error (maybe fixed) : 0

Track 09
CRC32 hash : BEA77BBF
CRC32 hash (skip zero) : 51D224A7
AccurateRip signature : 187F8508
->Accurately ripped! (confidence 2)
Statistics
Read error : 0
Skipped (treated as error) : 0
Edge jitter error (maybe fixed) : 0
Atom jitter error (maybe fixed) : 0
Drift error (maybe fixed) : 0
Dropped bytes error (maybe fixed) : 0
Duplicated bytes error (maybe fixed) : 0

Track 10
CRC32 hash : 8448E589
CRC32 hash (skip zero) : 187CEC9F
AccurateRip signature : 7B67FAE3
->Accurately ripped! (confidence 2)
Statistics
Read error : 0
Skipped (treated as error) : 0
Edge jitter error (maybe fixed) : 0
Atom jitter error (maybe fixed) : 0
Drift error (maybe fixed) : 0
Dropped bytes error (maybe fixed) : 0
Duplicated bytes error (maybe fixed) : 0

Track 11
CRC32 hash : 5F7AB51B
CRC32 hash (skip zero) : 3237B46B
AccurateRip signature : 74941361
->Accurately ripped! (confidence 2)
Statistics
Read error : 0
Skipped (treated as error) : 0
Edge jitter error (maybe fixed) : 0
Atom jitter error (maybe fixed) : 0
Drift error (maybe fixed) : 0
Dropped bytes error (maybe fixed) : 0
Duplicated bytes error (maybe fixed) : 0

Track 12
CRC32 hash : 806358FD
CRC32 hash (skip zero) : 8616F942
AccurateRip signature : 0666F2B5
->Accurately ripped! (confidence 2)
Statistics
Read error : 0
Skipped (treated as error) : 0
Edge jitter error (maybe fixed) : 0
Atom jitter error (maybe fixed) : 0
Drift error (maybe fixed) : 0
Dropped bytes error (maybe fixed) : 0
Duplicated bytes error (maybe fixed) : 0

Track 13
CRC32 hash : 6668E28D
CRC32 hash (skip zero) : 5F755EF1
AccurateRip signature : 3F067604
->Accurately ripped! (confidence 2)
Statistics
Read error : 0
Skipped (treated as error) : 0
Edge jitter error (maybe fixed) : 0
Atom jitter error (maybe fixed) : 0
Drift error (maybe fixed) : 0
Dropped bytes error (maybe fixed) : 0
Duplicated bytes error (maybe fixed) : 0

No errors occurred

End of status report
X Lossless Decoder version 20090320 (105.1)

XLD extraction logfile from 2009-04-25 11:41:46 +0400

Various Artists / Best Guitar 100 CD5

Used drive : OPTIARC DVD RW AD-7170A (revision 1.NC)

Use cdparanoia mode : YES (CDParanoia III 10.2 engine)
Disable audio cache : OK for the drive with cache less than 2750KB
Make use of C2 pointers : NO
Read offset correction : 48
Max retry count : 100

TOC of the extracted CD
Track | Start | Length | Start sector | End sector
––––––––––––––––––––––––––––-
1 | 00:00:00 | 03:25:65 | 0 | 15439
2 | 03:25:65 | 01:54:16 | 15440 | 24005
3 | 05:20:06 | 04:54:67 | 24006 | 46122
4 | 10:14:73 | 02:05:26 | 46123 | 55523
5 | 12:20:24 | 03:27:21 | 55524 | 71069
6 | 15:47:45 | 06:40:37 | 71070 | 101106
7 | 22:28:07 | 02:23:74 | 101107 | 111905
8 | 24:52:06 | 05:01:40 | 111906 | 134520
9 | 29:53:46 | 06:26:74 | 134521 | 163544
10 | 36:20:45 | 04:46:41 | 163545 | 185035
11 | 41:07:11 | 07:29:27 | 185036 | 218737
12 | 48:36:38 | 03:54:33 | 218738 | 236320
13 | 52:30:71 | 05:43:31 | 236321 | 262076
14 | 58:14:27 | 03:00:25 | 262077 | 275601
15 | 61:14:52 | 05:07:11 | 275602 | 298637
16 | 66:21:63 | 03:45:70 | 298638 | 315582
17 | 70:07:58 | 02:59:22 | 315583 | 329029
18 | 73:07:05 | 02:45:18 | 329030 | 341422


All Tracks
Filename : /Users/mac/Music/Ripping/100 best guitar/Best Guitar 100 CD5.flac
CRC32 hash : F7906BE1
CRC32 hash (skip zero) : E05DC844
Statistics
Read error : 0
Skipped (treated as error) : 0
Edge jitter error (maybe fixed) : 1
Atom jitter error (maybe fixed) : 1
Drift error (maybe fixed) : 0
Dropped bytes error (maybe fixed) : 1
Duplicated bytes error (maybe fixed) : 1

Track 01
CRC32 hash : 11BFDBCF
CRC32 hash (skip zero) : BF2BF0F8
AccurateRip signature : 93A9735C
->Accurately ripped! (confidence 2)
Statistics
Read error : 0
Skipped (treated as error) : 0
Edge jitter error (maybe fixed) : 0
Atom jitter error (maybe fixed) : 0
Drift error (maybe fixed) : 0
Dropped bytes error (maybe fixed) : 0
Duplicated bytes error (maybe fixed) : 0

Track 02
CRC32 hash : D1CE1B21
CRC32 hash (skip zero) : 4E144E4E
AccurateRip signature : C88CE9C7
->Accurately ripped! (confidence 2)
Statistics
Read error : 0
Skipped (treated as error) : 0
Edge jitter error (maybe fixed) : 0
Atom jitter error (maybe fixed) : 0
Drift error (maybe fixed) : 0
Dropped bytes error (maybe fixed) : 0
Duplicated bytes error (maybe fixed) : 0

Track 03
CRC32 hash : CFCD610B
CRC32 hash (skip zero) : 90320B66
AccurateRip signature : 013C90A7
->Accurately ripped! (confidence 2)
Statistics
Read error : 0
Skipped (treated as error) : 0
Edge jitter error (maybe fixed) : 0
Atom jitter error (maybe fixed) : 0
Drift error (maybe fixed) : 0
Dropped bytes error (maybe fixed) : 0
Duplicated bytes error (maybe fixed) : 0

Track 04
CRC32 hash : 8DD49121
CRC32 hash (skip zero) : 90FC2E2E
AccurateRip signature : 8FF8E7B7
->Accurately ripped! (confidence 2)
Statistics
Read error : 0
Skipped (treated as error) : 0
Edge jitter error (maybe fixed) : 0
Atom jitter error (maybe fixed) : 0
Drift error (maybe fixed) : 0
Dropped bytes error (maybe fixed) : 0
Duplicated bytes error (maybe fixed) : 0

Track 05
CRC32 hash : 15E7DE31
CRC32 hash (skip zero) : 875B7979
AccurateRip signature : 057F58ED
->Accurately ripped! (confidence 2)
Statistics
Read error : 0
Skipped (treated as error) : 0
Edge jitter error (maybe fixed) : 0
Atom jitter error (maybe fixed) : 0
Drift error (maybe fixed) : 0
Dropped bytes error (maybe fixed) : 0
Duplicated bytes error (maybe fixed) : 0

Track 06
CRC32 hash : FA29C768
CRC32 hash (skip zero) : FC3D1739
AccurateRip signature : DD2C193A
->Accurately ripped! (confidence 2)
Statistics
Read error : 0
Skipped (treated as error) : 0
Edge jitter error (maybe fixed) : 0
Atom jitter error (maybe fixed) : 0
Drift error (maybe fixed) : 0
Dropped bytes error (maybe fixed) : 0
Duplicated bytes error (maybe fixed) : 0

Track 07
CRC32 hash : E76FDB51
CRC32 hash (skip zero) : A6EBD10F
AccurateRip signature : 8184FEAF
->Accurately ripped! (confidence 2)
Statistics
Read error : 0
Skipped (treated as error) : 0
Edge jitter error (maybe fixed) : 0
Atom jitter error (maybe fixed) : 0
Drift error (maybe fixed) : 0
Dropped bytes error (maybe fixed) : 0
Duplicated bytes error (maybe fixed) : 0

Track 08
CRC32 hash : BF9BC8E1
CRC32 hash (skip zero) : 7AD6D863
AccurateRip signature : 1858D8EE
->Accurately ripped! (confidence 2)
Statistics
Read error : 0
Skipped (treated as error) : 0
Edge jitter error (maybe fixed) : 0
Atom jitter error (maybe fixed) : 0
Drift error (maybe fixed) : 0
Dropped bytes error (maybe fixed) : 0
Duplicated bytes error (maybe fixed) : 0

Track 09
CRC32 hash : 868F3F88
CRC32 hash (skip zero) : 36FE50BE
AccurateRip signature : B6BB725A
->Accurately ripped! (confidence 2)
Statistics
Read error : 0
Skipped (treated as error) : 0
Edge jitter error (maybe fixed) : 0
Atom jitter error (maybe fixed) : 0
Drift error (maybe fixed) : 0
Dropped bytes error (maybe fixed) : 0
Duplicated bytes error (maybe fixed) : 0

Track 10
CRC32 hash : 8CFA7ECE
CRC32 hash (skip zero) : D367DC5F
AccurateRip signature : 009D35A5
->Accurately ripped! (confidence 2)
Statistics
Read error : 0
Skipped (treated as error) : 0
Edge jitter error (maybe fixed) : 0
Atom jitter error (maybe fixed) : 0
Drift error (maybe fixed) : 0
Dropped bytes error (maybe fixed) : 0
Duplicated bytes error (maybe fixed) : 0

Track 11
CRC32 hash : 009B4FE0
CRC32 hash (skip zero) : 271EC8B2
AccurateRip signature : EEC54811
->Accurately ripped! (confidence 2)
Statistics
Read error : 0
Skipped (treated as error) : 0
Edge jitter error (maybe fixed) : 0
Atom jitter error (maybe fixed) : 0
Drift error (maybe fixed) : 0
Dropped bytes error (maybe fixed) : 0
Duplicated bytes error (maybe fixed) : 0

Track 12
CRC32 hash : BC8FDB41
CRC32 hash (skip zero) : C2D32780
AccurateRip signature : CDE81C0E
->Accurately ripped! (confidence 2)
Statistics
Read error : 0
Skipped (treated as error) : 0
Edge jitter error (maybe fixed) : 0
Atom jitter error (maybe fixed) : 0
Drift error (maybe fixed) : 0
Dropped bytes error (maybe fixed) : 0
Duplicated bytes error (maybe fixed) : 0

Track 13
CRC32 hash : A88DF4FC
CRC32 hash (skip zero) : FB739C28
AccurateRip signature : 57392EEF
->Accurately ripped! (confidence 2)
Statistics
Read error : 0
Skipped (treated as error) : 0
Edge jitter error (maybe fixed) : 1
Atom jitter error (maybe fixed) : 1
Drift error (maybe fixed) : 0
Dropped bytes error (maybe fixed) : 1
Duplicated bytes error (maybe fixed) : 1

Track 14
CRC32 hash : FDBA4E67
CRC32 hash (skip zero) : 384C2454
AccurateRip signature : 3FE9142B
->Accurately ripped! (confidence 2)
Statistics
Read error : 0
Skipped (treated as error) : 0
Edge jitter error (maybe fixed) : 0
Atom jitter error (maybe fixed) : 0
Drift error (maybe fixed) : 0
Dropped bytes error (maybe fixed) : 0
Duplicated bytes error (maybe fixed) : 0

Track 15
CRC32 hash : 0B5DE1E0
CRC32 hash (skip zero) : D435E5BF
AccurateRip signature : D21921F7
->Accurately ripped! (confidence 2)
Statistics
Read error : 0
Skipped (treated as error) : 0
Edge jitter error (maybe fixed) : 0
Atom jitter error (maybe fixed) : 0
Drift error (maybe fixed) : 0
Dropped bytes error (maybe fixed) : 0
Duplicated bytes error (maybe fixed) : 0

Track 16
CRC32 hash : B16B6AD0
CRC32 hash (skip zero) : 8AEB1B67
AccurateRip signature : B6EDBAB4
->Accurately ripped! (confidence 2)
Statistics
Read error : 0
Skipped (treated as error) : 0
Edge jitter error (maybe fixed) : 0
Atom jitter error (maybe fixed) : 0
Drift error (maybe fixed) : 0
Dropped bytes error (maybe fixed) : 0
Duplicated bytes error (maybe fixed) : 0

Track 17
CRC32 hash : 58A04EE3
CRC32 hash (skip zero) : 8E380A90
AccurateRip signature : E251D61E
->Accurately ripped! (confidence 2)
Statistics
Read error : 0
Skipped (treated as error) : 0
Edge jitter error (maybe fixed) : 0
Atom jitter error (maybe fixed) : 0
Drift error (maybe fixed) : 0
Dropped bytes error (maybe fixed) : 0
Duplicated bytes error (maybe fixed) : 0

Track 18
CRC32 hash : 28672A9C
CRC32 hash (skip zero) : BD750804
AccurateRip signature : 72158858
->Accurately ripped! (confidence 2)
Statistics
Read error : 0
Skipped (treated as error) : 0
Edge jitter error (maybe fixed) : 0
Atom jitter error (maybe fixed) : 0
Drift error (maybe fixed) : 0
Dropped bytes error (maybe fixed) : 0
Duplicated bytes error (maybe fixed) : 0

No errors occurred

End of status report
X Lossless Decoder version 20090320 (105.1)

XLD extraction logfile from 2009-04-25 12:28:07 +0400

Various / Best Guitar 100 CD6 (The modern guitar)

Used drive : MATSHITA DVD-R UJ-875 (revision DA09)

Use cdparanoia mode : YES (CDParanoia III 10.2 engine)
Disable audio cache : OK for the drive with cache less than 2750KB
Make use of C2 pointers : NO
Read offset correction : 102
Max retry count : 100

TOC of the extracted CD
Track | Start | Length | Start sector | End sector
––––––––––––––––––––––––––––-
1 | 00:00:00 | 06:23:16 | 0 | 28740
2 | 06:23:16 | 07:17:07 | 28741 | 61522
3 | 13:40:23 | 02:06:21 | 61523 | 70993
4 | 15:46:44 | 04:05:42 | 70994 | 89410
5 | 19:52:11 | 03:17:31 | 89411 | 104216
6 | 23:09:42 | 02:35:43 | 104217 | 115884
7 | 25:45:10 | 04:49:28 | 115885 | 137587
8 | 30:34:38 | 06:10:16 | 137588 | 165353
9 | 36:44:54 | 01:45:60 | 165354 | 173288
10 | 38:30:39 | 02:16:67 | 173289 | 183555
11 | 40:47:31 | 03:00:35 | 183556 | 197090
12 | 43:47:66 | 02:47:07 | 197091 | 209622
13 | 46:34:73 | 03:17:16 | 209623 | 224413
14 | 49:52:14 | 03:59:26 | 224414 | 242364
15 | 53:51:40 | 03:17:26 | 242365 | 257165
16 | 57:08:66 | 01:27:30 | 257166 | 263720
17 | 58:36:21 | 02:09:67 | 263721 | 273462
18 | 60:46:13 | 03:00:30 | 273463 | 286992
19 | 63:46:43 | 03:56:44 | 286993 | 304736
20 | 70:15:12 | 06:36:63 | 316137 | 345899

All Tracks
Filename : /Volumes/NO NAME/Best Guitar 100 CD6 (The modern guitar).flac
CRC32 hash : F0F2AFCC
CRC32 hash (skip zero) : 3081D0D8
Statistics
Read error : 0
Skipped (treated as error) : 0
Edge jitter error (maybe fixed) : 0
Atom jitter error (maybe fixed) : 0
Drift error (maybe fixed) : 0
Dropped bytes error (maybe fixed) : 0
Duplicated bytes error (maybe fixed) : 0

Track 01
CRC32 hash : 6C51E19F
CRC32 hash (skip zero) : 7D3C6176
AccurateRip signature : 4D896549
->Track not present in AccurateRip database.
Statistics
Read error : 0
Skipped (treated as error) : 0
Edge jitter error (maybe fixed) : 0
Atom jitter error (maybe fixed) : 0
Drift error (maybe fixed) : 0
Dropped bytes error (maybe fixed) : 0
Duplicated bytes error (maybe fixed) : 0

Track 02
CRC32 hash : 1193ECA5
CRC32 hash (skip zero) : 4BEA54FB
AccurateRip signature : 3B863A34
->Track not present in AccurateRip database.
Statistics
Read error : 0
Skipped (treated as error) : 0
Edge jitter error (maybe fixed) : 0
Atom jitter error (maybe fixed) : 0
Drift error (maybe fixed) : 0
Dropped bytes error (maybe fixed) : 0
Duplicated bytes error (maybe fixed) : 0

Track 03
CRC32 hash : 0980B0BB
CRC32 hash (skip zero) : 0EA3BF82
AccurateRip signature : 0AF7403B
->Track not present in AccurateRip database.
Statistics
Read error : 0
Skipped (treated as error) : 0
Edge jitter error (maybe fixed) : 0
Atom jitter error (maybe fixed) : 0
Drift error (maybe fixed) : 0
Dropped bytes error (maybe fixed) : 0
Duplicated bytes error (maybe fixed) : 0

Track 04
CRC32 hash : 46E01589
CRC32 hash (skip zero) : 01237DE5
AccurateRip signature : 7973A6FA
->Track not present in AccurateRip database.
Statistics
Read error : 0
Skipped (treated as error) : 0
Edge jitter error (maybe fixed) : 0
Atom jitter error (maybe fixed) : 0
Drift error (maybe fixed) : 0
Dropped bytes error (maybe fixed) : 0
Duplicated bytes error (maybe fixed) : 0

Track 05
CRC32 hash : BAFB643B
CRC32 hash (skip zero) : FD16A66E
AccurateRip signature : 312158CF
->Track not present in AccurateRip database.
Statistics
Read error : 0
Skipped (treated as error) : 0
Edge jitter error (maybe fixed) : 0
Atom jitter error (maybe fixed) : 0
Drift error (maybe fixed) : 0
Dropped bytes error (maybe fixed) : 0
Duplicated bytes error (maybe fixed) : 0

Track 06
CRC32 hash : 8F92272F
CRC32 hash (skip zero) : 723AABCA
AccurateRip signature : 60ED00DA
->Track not present in AccurateRip database.
Statistics
Read error : 0
Skipped (treated as error) : 0
Edge jitter error (maybe fixed) : 0
Atom jitter error (maybe fixed) : 0
Drift error (maybe fixed) : 0
Dropped bytes error (maybe fixed) : 0
Duplicated bytes error (maybe fixed) : 0

Track 07
CRC32 hash : 336C904D
CRC32 hash (skip zero) : 100333A7
AccurateRip signature : 4FC1272E
->Track not present in AccurateRip database.
Statistics
Read error : 0
Skipped (treated as error) : 0
Edge jitter error (maybe fixed) : 0
Atom jitter error (maybe fixed) : 0
Drift error (maybe fixed) : 0
Dropped bytes error (maybe fixed) : 0
Duplicated bytes error (maybe fixed) : 0

Track 08
CRC32 hash : 82FEE0FB
CRC32 hash (skip zero) : F915A1DC
AccurateRip signature : 063D4922
->Track not present in AccurateRip database.
Statistics
Read error : 0
Skipped (treated as error) : 0
Edge jitter error (maybe fixed) : 0
Atom jitter error (maybe fixed) : 0
Drift error (maybe fixed) : 0
Dropped bytes error (maybe fixed) : 0
Duplicated bytes error (maybe fixed) : 0

Track 09
CRC32 hash : 36F52FC8
CRC32 hash (skip zero) : 973C6881
AccurateRip signature : 4C16829D
->Track not present in AccurateRip database.
Statistics
Read error : 0
Skipped (treated as error) : 0
Edge jitter error (maybe fixed) : 0
Atom jitter error (maybe fixed) : 0
Drift error (maybe fixed) : 0
Dropped bytes error (maybe fixed) : 0
Duplicated bytes error (maybe fixed) : 0

Track 10
CRC32 hash : 701C213C
CRC32 hash (skip zero) : 5A6F59FC
AccurateRip signature : F2188A83
->Track not present in AccurateRip database.
Statistics
Read error : 0
Skipped (treated as error) : 0
Edge jitter error (maybe fixed) : 0
Atom jitter error (maybe fixed) : 0
Drift error (maybe fixed) : 0
Dropped bytes error (maybe fixed) : 0
Duplicated bytes error (maybe fixed) : 0

Track 11
CRC32 hash : BEA81848
CRC32 hash (skip zero) : 9A2D6E19
AccurateRip signature : 3D290426
->Track not present in AccurateRip database.
Statistics
Read error : 0
Skipped (treated as error) : 0
Edge jitter error (maybe fixed) : 0
Atom jitter error (maybe fixed) : 0
Drift error (maybe fixed) : 0
Dropped bytes error (maybe fixed) : 0
Duplicated bytes error (maybe fixed) : 0

Track 12
CRC32 hash : 9EE1823E
CRC32 hash (skip zero) : 0899CDC7
AccurateRip signature : 743535E9
->Track not present in AccurateRip database.
Statistics
Read error : 0
Skipped (treated as error) : 0
Edge jitter error (maybe fixed) : 0
Atom jitter error (maybe fixed) : 0
Drift error (maybe fixed) : 0
Dropped bytes error (maybe fixed) : 0
Duplicated bytes error (maybe fixed) : 0

Track 13
CRC32 hash : 41364666
CRC32 hash (skip zero) : AF9A9EE9
AccurateRip signature : 2ABB8C62
->Track not present in AccurateRip database.
Statistics
Read error : 0
Skipped (treated as error) : 0
Edge jitter error (maybe fixed) : 0
Atom jitter error (maybe fixed) : 0
Drift error (maybe fixed) : 0
Dropped bytes error (maybe fixed) : 0
Duplicated bytes error (maybe fixed) : 0

Track 14
CRC32 hash : 3F9A46A1
CRC32 hash (skip zero) : 11797469
AccurateRip signature : F7F44B75
->Track not present in AccurateRip database.
Statistics
Read error : 0
Skipped (treated as error) : 0
Edge jitter error (maybe fixed) : 0
Atom jitter error (maybe fixed) : 0
Drift error (maybe fixed) : 0
Dropped bytes error (maybe fixed) : 0
Duplicated bytes error (maybe fixed) : 0

Track 15
CRC32 hash : 03BE9587
CRC32 hash (skip zero) : 558F213E
AccurateRip signature : 5F6B1DE8
->Track not present in AccurateRip database.
Statistics
Read error : 0
Skipped (treated as error) : 0
Edge jitter error (maybe fixed) : 0
Atom jitter error (maybe fixed) : 0
Drift error (maybe fixed) : 0
Dropped bytes error (maybe fixed) : 0
Duplicated bytes error (maybe fixed) : 0

Track 16
CRC32 hash : F1ECE986
CRC32 hash (skip zero) : DD5917A9
AccurateRip signature : 408F066B
->Track not present in AccurateRip database.
Statistics
Read error : 0
Skipped (treated as error) : 0
Edge jitter error (maybe fixed) : 0
Atom jitter error (maybe fixed) : 0
Drift error (maybe fixed) : 0
Dropped bytes error (maybe fixed) : 0
Duplicated bytes error (maybe fixed) : 0

Track 17
CRC32 hash : D2102615
CRC32 hash (skip zero) : 7744E791
AccurateRip signature : D4C0AAAF
->Track not present in AccurateRip database.
Statistics
Read error : 0
Skipped (treated as error) : 0
Edge jitter error (maybe fixed) : 0
Atom jitter error (maybe fixed) : 0
Drift error (maybe fixed) : 0
Dropped bytes error (maybe fixed) : 0
Duplicated bytes error (maybe fixed) : 0

Track 18
CRC32 hash : 747B1709
CRC32 hash (skip zero) : AD3B62FA
AccurateRip signature : 1E3EE74E
->Track not present in AccurateRip database.
Statistics
Read error : 0
Skipped (treated as error) : 0
Edge jitter error (maybe fixed) : 0
Atom jitter error (maybe fixed) : 0
Drift error (maybe fixed) : 0
Dropped bytes error (maybe fixed) : 0
Duplicated bytes error (maybe fixed) : 0

Track 19
CRC32 hash : A6C259CB
CRC32 hash (skip zero) : EDF10BEE
AccurateRip signature : D593BB0E
->Track not present in AccurateRip database.
Statistics
Read error : 0
Skipped (treated as error) : 0
Edge jitter error (maybe fixed) : 0
Atom jitter error (maybe fixed) : 0
Drift error (maybe fixed) : 0
Dropped bytes error (maybe fixed) : 0
Duplicated bytes error (maybe fixed) : 0

No errors occurred

End of status report

Download


100BestGuitar

PLEASE DO NOT EXPOSE THE DIRECT LINKS!

See also 100 Best Classics Vol. 1 and Vol. 2, 100 Best Piano Classics, 100 Best Relaxing Classics, 100 Best Romantic Classics.