10cc - ...Meanwhile (1992)

Posted By: Andi_Deris
10cc - ...Meanwhile (1992)

10cc - …Meanwhile (1992)
EAC Rip | FLAC: Image+Cue+Log | 351 Mb | MP3 CBR 320 kbps | 147 Mb | Scans | 99 Mb | Time: 51:24
Polydor (Germany) | 513279-2
Pop Rock, Soft Rock, Art Rock

…Meanwhile is the tenth studio album by British pop band 10cc. It was recorded at Bearsville Studios in Woodstock, New York, The Hit Factory, New York, River Sound Studios, New York, Bill Schnee Studio, Los Angeles and Village Recorders, Los Angeles and released in 1992.

The album was the band's first in nine years and marked the brief comeback of original 10cc members Kevin Godley and Lol Creme: Godley performed lead vocals on "The Stars Didn't Show" and backing vocals on two songs, while Creme supplied backing vocals on six songs. It also featured appearances by singer Andrew Gold, blues pianist Dr. John and accomplished session musicians including Michael Landau and Jeff Porcaro, who were hired by Katz.

The album's closing song, "Don't Break the Promises", was co-written with Paul McCartney.

10cc - ...Meanwhile (1992)




10cc - ...Meanwhile (1992)


Track Listing

01. Woman In Love (06:12)
02. Wonderland (04:53)
03. Fill Her Up (04:08)
04. Something Special (03:23)
05. Welcome To Paradise (06:14)
06. The Stars Didn't Show (04:51)
07. Green Eyed Monster (04:45)
08. Charity Begins At Home (04:55)
09. Shine A Light In The Dark (05:42)
10. Don't Break The Promises (06:23)

Produced by Gary Katz and 10cc

The Band

• Eric Stewart - vocals, guitars, Rhodes piano, grand piano, slide guitar, strings
• Graham Gouldman - guitars, vocals
• Lol Creme - backing vocals
• Kevin Godley - lead vocals ("The Stars Didn't Show"), backing vocals

*****
• Jeff Porcaro - drums, percussion
• Freddie Washington - 5 string bass guitar
• Michael Landau - guitars
• David Paich - Hammond B3 organ, melody synth
• Mac Rebenack (Dr John) - grand piano ("Fill Her Up", "Something Special", "Charity Begins at Home")
• Paul Griffin - synths
• Bashiri Johnson - percussion, tambourine
• Frank Floyd, Fonzi Thornton, Curtis King, Tawatha Agee, Vaneese Thomas - backing vocals
• Jerry Hey - horn arrangement, trumpet
• Gary Grant - trumpet
• Dan Higgins, Kim Hutchcroften - saxophone
• Bill Reichenbach Jr. - trombone
• Gordon Gaines - lead guitar
• Andrew Gold - 12 string guitar ("Charity Begins at Home")
• Paul McCartney - Hófner Bass ("Don't Break the Promises")

Exact Audio Copy V1.0 beta 3 from 29. August 2011

EAC extraction logfile from 30. January 2014, 20:38

10 CC / Meanwhile

Used drive : PLEXTOR DVDR PX-L890SA Adapter: 1 ID: 0

Read mode : Secure
Utilize accurate stream : Yes
Defeat audio cache : Yes
Make use of C2 pointers : No

Read offset correction : 6
Overread into Lead-In and Lead-Out : No
Fill up missing offset samples with silence : Yes
Delete leading and trailing silent blocks : No
Null samples used in CRC calculations : Yes
Used interface : Native Win32 interface for Win NT & 2000

Used output format : User Defined Encoder
Selected bitrate : 768 kBit/s
Quality : High
Add ID3 tag : No
Command line compressor : G:\Program Files\Exact Audio Copy\FLAC\FLAC.EXE
Additional command line options : -V -8 -T "Date=%year%" -T "Genre=%genre%" %source%


TOC of the extracted CD

Track | Start | Length | Start sector | End sector
––––––––––––––––––––––––––––-
1 | 0:00.00 | 6:11.42 | 0 | 27866
2 | 6:11.42 | 4:53.30 | 27867 | 49871
3 | 11:04.72 | 4:07.65 | 49872 | 68461
4 | 15:12.62 | 3:22.48 | 68462 | 83659
5 | 18:35.35 | 6:13.65 | 83660 | 111699
6 | 24:49.25 | 4:50.70 | 111700 | 133519
7 | 29:40.20 | 4:44.40 | 133520 | 154859
8 | 34:24.60 | 4:54.37 | 154860 | 176946
9 | 39:19.22 | 5:41.53 | 176947 | 202574
10 | 45:01.00 | 6:22.52 | 202575 | 231276


Range status and errors

Selected range

Filename H:\MUSIC\10CC\1992. 10CC - …Meanwhile (Polydor 513 279-2, UK)\10 CC - Meanwhile.wav

Peak level 100.0 %
Extraction speed 5.6 X
Range quality 99.9 %
Test CRC 3777826F
Copy CRC 3777826F
Copy OK

No errors occurred


AccurateRip summary

Track 1 accurately ripped (confidence 21) [F8307DA5] (AR v2)
Track 2 accurately ripped (confidence 21) [F54C526F] (AR v2)
Track 3 accurately ripped (confidence 21) [F3174C13] (AR v2)
Track 4 accurately ripped (confidence 21) [909CC739] (AR v2)
Track 5 accurately ripped (confidence 21) [D538813A] (AR v2)
Track 6 accurately ripped (confidence 21) [DA610C51] (AR v2)
Track 7 accurately ripped (confidence 21) [64221C36] (AR v2)
Track 8 accurately ripped (confidence 21) [ACAF2EEF] (AR v2)
Track 9 accurately ripped (confidence 21) [FC7D3809] (AR v2)
Track 10 accurately ripped (confidence 20) [15A93169] (AR v2)

All tracks accurately ripped

End of status report

–– CUETools DB Plugin V2.1.3

[CTDB TOCID: 17JiCDPdJK7pt6OU6JMvGJgBaBQ-] found, Submit result: 17JiCDPdJK7pt6OU6JMvGJgBaBQ- has been confirmed
[90ad96f9] (12/12) Accurately ripped


==== Log checksum 0157EEDB6C8F06C7B0716B0AD02D1EB57C90D384448FF7EE57FA291ED3F5ED8E ====


Many thanks to the original uploader: snakesharmer





Password: pass