Subcategories

Jerry Lee Lewis - Sun Essentials [BOX SET]

Posted By: valken
Jerry Lee Lewis - Sun Essentials [BOX SET]

Jerry Lee Lewis - Sun Essentials [BOX SET]
EAC Rip | 4 CD | FLAC (tracks) + LOG, NO CUE | Cover (Scan 300dpi) | 1.5 GB
ROCK&ROLL | Label: Snapper Music Group | Released: 2006 | Catalog Number: 737 | RS&HF

Like a heat lightening, scorching across the hot Louisania night! I had never heard much Jerry Lee Lewis when I first decided to pick up this box set. Truth be told, the early years of rock'n'roll had not interested me much until a few months ago when my younger cousin introduced me to some of the music. Its all fair and square, though, I got him hooked in classic country a few years back.
Anyway, this box set rocks; its an amazing collection of the early work of Jerry Lee Lewis who was one of the early greats of the genre. When you listen to this music you can not help but feel that all of the cool, rebeliousness, and power which are oozing from the speakers is rubbing off on you just a little bit.
Buy this box set and then, when your done, pick up the Johnny Cash Sun Records set as well, which is another amazing collection.
Daniel McCollum – Amazon

Tracklisting - CD1
1.: Whole Lotta Shakin' Goin' On
2.: Great Balls Of Fire
3.: High School Confidential
4.: Be Bop A Lula
5.: Good Golly Miss Molly
6.: Down The Line
7.: Lovin' Up A Storm
8.: Wild One
9.: Ooby Dooby
10.: End Of The Road
11.: All Night Long
12.: Pumping Piano Rock
13.: Let The Good Times Roll
14.: Put Me Down
15.: Don't Be Cruel
16.: I'm Feeling Sorry
17.: Home
18.: Wild Side Of Life
19.: When My Blue Moon Turns To Gold Again
20.: I Love You Because
21.: Born To Lose
22.: I'm Throwing Rice
23.: Jambalaya (On The Bayou)
24.: Lovesick Blues
25.: You Win Again
26.: Crazy Heart
27.: Long Gone Lonesome Blues
28.: Cold Cold Heart
29.: I Can't Help It (If I'm Still In Love With You)
30.: Your Cheatin' Heart
31.: Settin' The Woods On Fire
32.: Walk That Lonesome Valley
Exact Audio Copy V0.99 prebeta 5 from 4. May 2009

EAC extraction logfile from 29. August 2009, 0:46

Jerry Lee Lewis / Sun Essentials - Rockin' Rollin' Country Boy (CD 1)

Used drive : TSSTcorpCDDVDW SH-S202J Adapter: 1 ID: 0

Read mode : Secure
Utilize accurate stream : Yes
Defeat audio cache : No
Make use of C2 pointers : No

Read offset correction : 6
Overread into Lead-In and Lead-Out : No
Fill up missing offset samples with silence : Yes
Delete leading and trailing silent blocks : No
Null samples used in CRC calculations : Yes
Used interface : Installed external ASPI interface
Gap handling : Not detected, thus appended to previous track

Used output format : User Defined Encoder
Selected bitrate : 1024 kBit/s
Quality : High
Add ID3 tag : No
Command line compressor : C:\Programmi\Exact Audio Copy\FLAC\FLAC.EXE
Additional command line options : -8 -V -T "artist=%a" -T "title=%t" -T "album=%g" -T "date=%y" -T "tracknumber=%n" -T "genre=%m" %s


TOC of the extracted CD

Track | Start | Length | Start sector | End sector
––––––––––––––––––––––––––––-
1 | 0:00.00 | 2:53.65 | 0 | 13039
2 | 2:53.65 | 1:52.60 | 13040 | 21499
3 | 4:46.50 | 2:30.12 | 21500 | 32761
4 | 7:16.62 | 2:27.60 | 32762 | 43846
5 | 9:44.47 | 2:12.08 | 43847 | 53754
6 | 11:56.55 | 2:14.00 | 53755 | 63804
7 | 14:10.55 | 1:52.40 | 63805 | 72244
8 | 16:03.20 | 1:52.60 | 72245 | 80704
9 | 17:56.05 | 1:58.57 | 80705 | 89611
10 | 19:54.62 | 1:48.58 | 89612 | 97769
11 | 21:43.45 | 2:04.60 | 97770 | 107129
12 | 23:48.30 | 2:03.55 | 107130 | 116409
13 | 25:52.10 | 2:12.20 | 116410 | 126329
14 | 28:04.30 | 2:09.37 | 126330 | 136041
15 | 30:13.67 | 1:59.50 | 136042 | 145016
16 | 32:13.42 | 2:40.20 | 145017 | 157036
17 | 34:53.62 | 1:58.45 | 157037 | 165931
18 | 36:52.32 | 2:47.30 | 165932 | 178486
19 | 39:39.62 | 2:33.33 | 178487 | 189994
20 | 42:13.20 | 3:03.10 | 189995 | 203729
21 | 45:16.30 | 2:40.60 | 203730 | 215789
22 | 47:57.15 | 2:15.27 | 215790 | 225941
23 | 50:12.42 | 1:59.25 | 225942 | 234891
24 | 52:11.67 | 2:09.60 | 234892 | 244626
25 | 54:21.52 | 2:48.70 | 244627 | 257296
26 | 57:10.47 | 2:55.68 | 257297 | 270489
27 | 60:06.40 | 3:07.05 | 270490 | 284519
28 | 63:13.45 | 2:53.42 | 284520 | 297536
29 | 66:07.12 | 1:46.48 | 297537 | 305534
30 | 67:53.60 | 2:26.07 | 305535 | 316491
31 | 70:19.67 | 2:04.20 | 316492 | 325811
32 | 72:24.12 | 2:22.37 | 325812 | 336498


Track 1

Filename C:\Musica\Musica_Rippata\Jerry Lee Lewis\Sun Essentials - Rockin' Rollin' Country Boy (CD 1)\01 - Jerry Lee Lewis - Whole Lotta Shakin' Goin' On.wav

Peak level 89.8 %
Track quality 100.0 %
Copy CRC F3B1B4B0
Cannot be verified as accurate (confidence 1) [01C2581F], AccurateRip returned [2AE174F3]
Copy OK

Track 2

Filename C:\Musica\Musica_Rippata\Jerry Lee Lewis\Sun Essentials - Rockin' Rollin' Country Boy (CD 1)\02 - Jerry Lee Lewis - Great Balls of Fire.wav

Peak level 88.5 %
Track quality 100.0 %
Copy CRC 48231684
Cannot be verified as accurate (confidence 1) [07743E72], AccurateRip returned [721C0B6A]
Copy OK

Track 3

Filename C:\Musica\Musica_Rippata\Jerry Lee Lewis\Sun Essentials - Rockin' Rollin' Country Boy (CD 1)\03 - Jerry Lee Lewis - High School Confidential.wav

Peak level 88.5 %
Track quality 100.0 %
Copy CRC 1452A956
Cannot be verified as accurate (confidence 1) [C6D1C678], AccurateRip returned [93D9BFA4]
Copy OK

Track 4

Filename C:\Musica\Musica_Rippata\Jerry Lee Lewis\Sun Essentials - Rockin' Rollin' Country Boy (CD 1)\04 - Jerry Lee Lewis - Be Bop A Lula.wav

Peak level 90.9 %
Track quality 100.0 %
Copy CRC A6AAA24B
Cannot be verified as accurate (confidence 1) [6A018E6D], AccurateRip returned [286106DD]
Copy OK

Track 5

Filename C:\Musica\Musica_Rippata\Jerry Lee Lewis\Sun Essentials - Rockin' Rollin' Country Boy (CD 1)\05 - Jerry Lee Lewis - Good Golly, Miss Molly.wav

Peak level 88.8 %
Track quality 100.0 %
Copy CRC 44983098
Cannot be verified as accurate (confidence 1) [51257729], AccurateRip returned [FFC9619D]
Copy OK

Track 6

Filename C:\Musica\Musica_Rippata\Jerry Lee Lewis\Sun Essentials - Rockin' Rollin' Country Boy (CD 1)\06 - Jerry Lee Lewis - Down the Line.wav

Peak level 88.2 %
Track quality 100.0 %
Copy CRC 18287A98
Cannot be verified as accurate (confidence 1) [95B4DD30], AccurateRip returned [E0784464]
Copy OK

Track 7

Filename C:\Musica\Musica_Rippata\Jerry Lee Lewis\Sun Essentials - Rockin' Rollin' Country Boy (CD 1)\07 - Jerry Lee Lewis - Lovin' Up A Storm.wav

Peak level 90.6 %
Track quality 99.9 %
Copy CRC 46890D72
Cannot be verified as accurate (confidence 1) [37BAACA3], AccurateRip returned [AC4F65B3]
Copy OK

Track 8

Filename C:\Musica\Musica_Rippata\Jerry Lee Lewis\Sun Essentials - Rockin' Rollin' Country Boy (CD 1)\08 - Jerry Lee Lewis - Wild One.wav

Peak level 88.3 %
Track quality 100.0 %
Copy CRC 3B844CDA
Cannot be verified as accurate (confidence 1) [74BDE436], AccurateRip returned [671D9B06]
Copy OK

Track 9

Filename C:\Musica\Musica_Rippata\Jerry Lee Lewis\Sun Essentials - Rockin' Rollin' Country Boy (CD 1)\09 - Jerry Lee Lewis - Ooby Dooby.wav

Peak level 90.6 %
Track quality 100.0 %
Copy CRC 12944E73
Cannot be verified as accurate (confidence 1) [3A117C90], AccurateRip returned [BEE561E4]
Copy OK

Track 10

Filename C:\Musica\Musica_Rippata\Jerry Lee Lewis\Sun Essentials - Rockin' Rollin' Country Boy (CD 1)\10 - Jerry Lee Lewis - End of the Road.wav

Peak level 88.1 %
Track quality 100.0 %
Copy CRC 2E36D86C
Cannot be verified as accurate (confidence 1) [2D3F8287], AccurateRip returned [C9521DA7]
Copy OK

Track 11

Filename C:\Musica\Musica_Rippata\Jerry Lee Lewis\Sun Essentials - Rockin' Rollin' Country Boy (CD 1)\11 - Jerry Lee Lewis - Pumping Piano Rock.wav

Peak level 88.7 %
Track quality 100.0 %
Copy CRC 69397262
Cannot be verified as accurate (confidence 1) [D6BAFEF1], AccurateRip returned [919296F9]
Copy OK

Track 12

Filename C:\Musica\Musica_Rippata\Jerry Lee Lewis\Sun Essentials - Rockin' Rollin' Country Boy (CD 1)\12 - Jerry Lee Lewis - All Night Long.wav

Peak level 89.1 %
Track quality 100.0 %
Copy CRC 9828FA98
Cannot be verified as accurate (confidence 1) [7FD4CE69], AccurateRip returned [EEAEE371]
Copy OK

Track 13

Filename C:\Musica\Musica_Rippata\Jerry Lee Lewis\Sun Essentials - Rockin' Rollin' Country Boy (CD 1)\13 - Jerry Lee Lewis - Let the Good Times Roll.wav

Peak level 88.7 %
Track quality 100.0 %
Copy CRC 722599C3
Cannot be verified as accurate (confidence 1) [EB328DE3], AccurateRip returned [4BC0285B]
Copy OK

Track 14

Filename C:\Musica\Musica_Rippata\Jerry Lee Lewis\Sun Essentials - Rockin' Rollin' Country Boy (CD 1)\14 - Jerry Lee Lewis - Put Me Down.wav

Peak level 90.5 %
Track quality 99.9 %
Copy CRC A8BF5BC0
Cannot be verified as accurate (confidence 1) [EED24308], AccurateRip returned [5FC22DA0]
Copy OK

Track 15

Filename C:\Musica\Musica_Rippata\Jerry Lee Lewis\Sun Essentials - Rockin' Rollin' Country Boy (CD 1)\15 - Jerry Lee Lewis - Don't Be Cruel.wav

Peak level 88.3 %
Track quality 100.0 %
Copy CRC A25354D9
Cannot be verified as accurate (confidence 1) [4490D607], AccurateRip returned [52856BC3]
Copy OK

Track 16

Filename C:\Musica\Musica_Rippata\Jerry Lee Lewis\Sun Essentials - Rockin' Rollin' Country Boy (CD 1)\16 - Jerry Lee Lewis - I'm Feeling Sorry.wav

Peak level 89.8 %
Track quality 100.0 %
Copy CRC DBAB4E9E
Cannot be verified as accurate (confidence 1) [783EACC4], AccurateRip returned [D8FC830C]
Copy OK

Track 17

Filename C:\Musica\Musica_Rippata\Jerry Lee Lewis\Sun Essentials - Rockin' Rollin' Country Boy (CD 1)\17 - Jerry Lee Lewis - Home.wav

Peak level 89.0 %
Track quality 100.0 %
Copy CRC AC93832B
Cannot be verified as accurate (confidence 1) [F780610A], AccurateRip returned [9A6F4676]
Copy OK

Track 18

Filename C:\Musica\Musica_Rippata\Jerry Lee Lewis\Sun Essentials - Rockin' Rollin' Country Boy (CD 1)\18 - Jerry Lee Lewis - The Wild Side of Live.wav

Peak level 88.9 %
Track quality 100.0 %
Copy CRC 3FFD40A5
Cannot be verified as accurate (confidence 1) [3801B569], AccurateRip returned [35CB5325]
Copy OK

Track 19

Filename C:\Musica\Musica_Rippata\Jerry Lee Lewis\Sun Essentials - Rockin' Rollin' Country Boy (CD 1)\19 - Jerry Lee Lewis - When My Blue Moon Turns To Gold Again.wav

Peak level 89.0 %
Track quality 100.0 %
Copy CRC C00F95DA
Cannot be verified as accurate (confidence 1) [76155D14], AccurateRip returned [DE03E5D4]
Copy OK

Track 20

Filename C:\Musica\Musica_Rippata\Jerry Lee Lewis\Sun Essentials - Rockin' Rollin' Country Boy (CD 1)\20 - Jerry Lee Lewis - I Love Because.wav

Peak level 89.6 %
Track quality 100.0 %
Copy CRC 2AA83CEB
Cannot be verified as accurate (confidence 1) [28B6C7FB], AccurateRip returned [09BD6B03]
Copy OK

Track 21

Filename C:\Musica\Musica_Rippata\Jerry Lee Lewis\Sun Essentials - Rockin' Rollin' Country Boy (CD 1)\21 - Jerry Lee Lewis - Born To Lose.wav

Peak level 92.6 %
Track quality 100.0 %
Copy CRC D7C07D6B
Cannot be verified as accurate (confidence 1) [42B4556B], AccurateRip returned [84A49D5F]
Copy OK

Track 22

Filename C:\Musica\Musica_Rippata\Jerry Lee Lewis\Sun Essentials - Rockin' Rollin' Country Boy (CD 1)\22 - Jerry Lee Lewis - I'm Throwing Rice (At the Girl I Love).wav

Peak level 90.6 %
Track quality 100.0 %
Copy CRC 505220B5
Cannot be verified as accurate (confidence 1) [2E70898C], AccurateRip returned [48C55E20]
Copy OK

Track 23

Filename C:\Musica\Musica_Rippata\Jerry Lee Lewis\Sun Essentials - Rockin' Rollin' Country Boy (CD 1)\23 - Jerry Lee Lewis - Jambalaya (On the Bayou).wav

Peak level 88.5 %
Track quality 100.0 %
Copy CRC 036E6F0E
Cannot be verified as accurate (confidence 1) [59285FBF], AccurateRip returned [B0B0A743]
Copy OK

Track 24

Filename C:\Musica\Musica_Rippata\Jerry Lee Lewis\Sun Essentials - Rockin' Rollin' Country Boy (CD 1)\24 - Jerry Lee Lewis - Lovesick Blues.wav

Peak level 89.1 %
Track quality 100.0 %
Copy CRC E7C426A2
Cannot be verified as accurate (confidence 1) [4ED1802D], AccurateRip returned [42446649]
Copy OK

Track 25

Filename C:\Musica\Musica_Rippata\Jerry Lee Lewis\Sun Essentials - Rockin' Rollin' Country Boy (CD 1)\25 - Jerry Lee Lewis - Crazy Heart.wav

Peak level 88.7 %
Track quality 100.0 %
Copy CRC A06CCD3E
Cannot be verified as accurate (confidence 1) [FAC48D13], AccurateRip returned [88EC8AD7]
Copy OK

Track 26

Filename C:\Musica\Musica_Rippata\Jerry Lee Lewis\Sun Essentials - Rockin' Rollin' Country Boy (CD 1)\26 - Jerry Lee Lewis - You Win Again.wav

Peak level 90.4 %
Track quality 100.0 %
Copy CRC 70DE9A8B
Cannot be verified as accurate (confidence 1) [6AE85731], AccurateRip returned [9EC64EC1]
Copy OK

Track 27

Filename C:\Musica\Musica_Rippata\Jerry Lee Lewis\Sun Essentials - Rockin' Rollin' Country Boy (CD 1)\27 - Jerry Lee Lewis - Cold, Cold Heart.wav

Peak level 89.4 %
Track quality 100.0 %
Copy CRC 0E88D90A
Cannot be verified as accurate (confidence 1) [7BD28A39], AccurateRip returned [A6633E29]
Copy OK

Track 28

Filename C:\Musica\Musica_Rippata\Jerry Lee Lewis\Sun Essentials - Rockin' Rollin' Country Boy (CD 1)\28 - Jerry Lee Lewis - I Can't Help It (If I'm Still In Love With You).wav

Peak level 88.7 %
Track quality 100.0 %
Copy CRC C027CE8B
Cannot be verified as accurate (confidence 1) [7D6D049E], AccurateRip returned [2CDE182A]
Copy OK

Track 29

Filename C:\Musica\Musica_Rippata\Jerry Lee Lewis\Sun Essentials - Rockin' Rollin' Country Boy (CD 1)\29 - Jerry Lee Lewis - Your Cheatin' Heart.wav

Peak level 89.9 %
Track quality 100.0 %
Copy CRC AE429C0E
Cannot be verified as accurate (confidence 1) [C242BB20], AccurateRip returned [4F9E5C88]
Copy OK

Track 30

Filename C:\Musica\Musica_Rippata\Jerry Lee Lewis\Sun Essentials - Rockin' Rollin' Country Boy (CD 1)\30 - Jerry Lee Lewis - Settin' the Woods On Fire.wav

Peak level 88.2 %
Track quality 99.9 %
Copy CRC B8E74E54
Cannot be verified as accurate (confidence 1) [BC35F645], AccurateRip returned [74C61C2D]
Copy OK

Track 31

Filename C:\Musica\Musica_Rippata\Jerry Lee Lewis\Sun Essentials - Rockin' Rollin' Country Boy (CD 1)\31 - Jerry Lee Lewis - Long Gone Lonesome Blues.wav

Peak level 89.2 %
Track quality 100.0 %
Copy CRC 162C4D4F
Cannot be verified as accurate (confidence 1) [7446AA35], AccurateRip returned [6865E705]
Copy OK

Track 32

Filename C:\Musica\Musica_Rippata\Jerry Lee Lewis\Sun Essentials - Rockin' Rollin' Country Boy (CD 1)\32 - Jerry Lee Lewis - (Walk That) Lonesome Valley.wav

Peak level 88.9 %
Track quality 100.0 %
Copy CRC 2AD4EEB2
Cannot be verified as accurate (confidence 1) [26ECF06C], AccurateRip returned [03CE0EF4]
Copy OK


No tracks could be verified as accurate
You may have a different pressing from the one(s) in the database

No errors occurred

End of status report


Tracklisting - CD2
1.: Big Blon' Baby
2.: Rock 'n' Roll Ruby
3.: Pink Pedal Pushers
4.: Breathless
5.: I'm Sorry I'm Not Sorry
6.: Ubangi Stomp
7.: Friday Night
8.: It'll Be Me
9.: Milkshake Mademoiselle
10.: Baby Baby Bye Bye
11.: Break Up
12.: Just Who Is To Blame
13.: Charming Billy
14.: It Won't Happen With Me
15.: Bonnie B
16.: Livin' Lovin' Wreck
17.: Your Lovin' Ways
18.: Crazy Arms
19.: I'll Make It All Up To You
20.: Let's Talk About Us
21.: It Hurt Me So
22.: As Long As I Live
23.: How's My Ex Treating You
24.: I Can't Seem To Say Goodbye
25.: Shame On You
26.: I'll Sail My Ship Alone
27.: Someday (You'll Want Me To Want You)
28.: Set My Mind At Ease
29.: Seasons Of My Heart
30.: It All Depends (On Who Will Buy The Wine)
31.: Slippin' Around
32.: Night Train To Memphis
Exact Audio Copy V0.99 prebeta 5 from 4. May 2009

EAC extraction logfile from 29. August 2009, 1:17

Jerry Lee Lewis / Sun Essentials - The Country Boy Rocks On (CD 2)

Used drive : TSSTcorpCDDVDW SH-S202J Adapter: 1 ID: 0

Read mode : Secure
Utilize accurate stream : Yes
Defeat audio cache : No
Make use of C2 pointers : No

Read offset correction : 6
Overread into Lead-In and Lead-Out : No
Fill up missing offset samples with silence : Yes
Delete leading and trailing silent blocks : No
Null samples used in CRC calculations : Yes
Used interface : Installed external ASPI interface
Gap handling : Not detected, thus appended to previous track

Used output format : User Defined Encoder
Selected bitrate : 1024 kBit/s
Quality : High
Add ID3 tag : No
Command line compressor : C:\Programmi\Exact Audio Copy\FLAC\FLAC.EXE
Additional command line options : -8 -V -T "artist=%a" -T "title=%t" -T "album=%g" -T "date=%y" -T "tracknumber=%n" -T "genre=%m" %s


TOC of the extracted CD

Track | Start | Length | Start sector | End sector
––––––––––––––––––––––––––––-
1 | 0:00.00 | 1:42.55 | 0 | 7704
2 | 1:42.55 | 1:59.10 | 7705 | 16639
3 | 3:41.65 | 2:08.40 | 16640 | 26279
4 | 5:50.30 | 2:43.57 | 26280 | 38561
5 | 8:34.12 | 2:36.35 | 38562 | 50296
6 | 11:10.47 | 1:47.53 | 50297 | 58374
7 | 12:58.25 | 1:42.52 | 58375 | 66076
8 | 14:41.02 | 2:45.55 | 66077 | 78506
9 | 17:26.57 | 2:12.68 | 78507 | 88474
10 | 19:39.50 | 1:58.20 | 88475 | 97344
11 | 21:37.70 | 2:20.00 | 97345 | 107844
12 | 23:57.70 | 2:35.50 | 107845 | 119519
13 | 26:33.45 | 2:18.35 | 119520 | 129904
14 | 28:52.05 | 2:59.37 | 129905 | 143366
15 | 31:51.42 | 2:19.43 | 143367 | 153834
16 | 34:11.10 | 2:03.52 | 153835 | 163111
17 | 36:14.62 | 2:39.08 | 163112 | 175044
18 | 38:53.70 | 2:44.65 | 175045 | 187409
19 | 41:38.60 | 2:45.65 | 187410 | 199849
20 | 44:24.50 | 2:08.52 | 199850 | 209501
21 | 46:33.27 | 2:39.68 | 209502 | 221494
22 | 49:13.20 | 2:27.32 | 221495 | 232551
23 | 51:40.52 | 2:37.05 | 232552 | 244331
24 | 54:17.57 | 2:33.40 | 244332 | 255846
25 | 56:51.22 | 2:10.18 | 255847 | 265614
26 | 59:01.40 | 2:08.52 | 265615 | 275266
27 | 61:10.17 | 2:45.08 | 275267 | 287649
28 | 63:55.25 | 2:03.25 | 287650 | 296899
29 | 65:58.50 | 3:01.00 | 296900 | 310474
30 | 68:59.50 | 2:59.27 | 310475 | 323926
31 | 71:59.02 | 2:53.18 | 323927 | 336919
32 | 74:52.20 | 2:09.73 | 336920 | 346667


Track 1

Filename C:\Musica\Musica_Rippata\Jerry Lee Lewis\Sun Essentials - The Country Boy Rocks On (CD 2)\01 - Jerry Lee Lewis - Big Blon' Baby.wav

Peak level 88.6 %
Track quality 100.0 %
Copy CRC 4AFD274F
Cannot be verified as accurate (confidence 1) [7507129F], AccurateRip returned [13F0D571]
Copy OK

Track 2

Filename C:\Musica\Musica_Rippata\Jerry Lee Lewis\Sun Essentials - The Country Boy Rocks On (CD 2)\02 - Jerry Lee Lewis - Rock 'n' Roll Ruby.wav

Peak level 90.0 %
Track quality 100.0 %
Copy CRC B465F0C6
Cannot be verified as accurate (confidence 1) [1B02EBCA], AccurateRip returned [32401A72]
Copy OK

Track 3

Filename C:\Musica\Musica_Rippata\Jerry Lee Lewis\Sun Essentials - The Country Boy Rocks On (CD 2)\03 - Jerry Lee Lewis - Pink Pedal Pushers.wav

Peak level 93.2 %
Track quality 100.0 %
Copy CRC 56FA6EFA
Cannot be verified as accurate (confidence 1) [1C550B84], AccurateRip returned [8FDD4630]
Copy OK

Track 4

Filename C:\Musica\Musica_Rippata\Jerry Lee Lewis\Sun Essentials - The Country Boy Rocks On (CD 2)\04 - Jerry Lee Lewis - Breathless.wav

Peak level 89.7 %
Track quality 100.0 %
Copy CRC C32BC9A4
Cannot be verified as accurate (confidence 1) [FBE596D6], AccurateRip returned [C481318A]
Copy OK

Track 5

Filename C:\Musica\Musica_Rippata\Jerry Lee Lewis\Sun Essentials - The Country Boy Rocks On (CD 2)\05 - Jerry Lee Lewis - I'm Sorry, I'm Not Sorry.wav

Peak level 89.4 %
Track quality 100.0 %
Copy CRC B9D74B00
Cannot be verified as accurate (confidence 1) [C61372A2], AccurateRip returned [93486A96]
Copy OK

Track 6

Filename C:\Musica\Musica_Rippata\Jerry Lee Lewis\Sun Essentials - The Country Boy Rocks On (CD 2)\06 - Jerry Lee Lewis - Ubangi Stomp.wav

Peak level 89.1 %
Track quality 100.0 %
Copy CRC 33A6DA85
Cannot be verified as accurate (confidence 1) [B1C46281], AccurateRip returned [9E2651AF]
Copy OK

Track 7

Filename C:\Musica\Musica_Rippata\Jerry Lee Lewis\Sun Essentials - The Country Boy Rocks On (CD 2)\07 - Jerry Lee Lewis - Friday Night.wav

Peak level 88.2 %
Track quality 100.0 %
Copy CRC 6A81EFD7
Cannot be verified as accurate (confidence 1) [7DDA3B8E], AccurateRip returned [16FA7110]
Copy OK

Track 8

Filename C:\Musica\Musica_Rippata\Jerry Lee Lewis\Sun Essentials - The Country Boy Rocks On (CD 2)\08 - Jerry Lee Lewis - It'll Be Me.wav

Peak level 88.7 %
Track quality 100.0 %
Copy CRC AFE2C75D
Cannot be verified as accurate (confidence 1) [AD18FE48], AccurateRip returned [42381346]
Copy OK

Track 9

Filename C:\Musica\Musica_Rippata\Jerry Lee Lewis\Sun Essentials - The Country Boy Rocks On (CD 2)\09 - Jerry Lee Lewis - Milk Shake Mademoiselle.wav

Peak level 88.5 %
Track quality 100.0 %
Copy CRC 125A92C8
Cannot be verified as accurate (confidence 1) [59A7461A], AccurateRip returned [3FF6E2DE]
Copy OK

Track 10

Filename C:\Musica\Musica_Rippata\Jerry Lee Lewis\Sun Essentials - The Country Boy Rocks On (CD 2)\10 - Jerry Lee Lewis - Baby, Baby, Bye, Bye.wav

Peak level 90.3 %
Track quality 100.0 %
Copy CRC ED31876D
Cannot be verified as accurate (confidence 1) [7AE696B8], AccurateRip returned [1288028A]
Copy OK

Track 11

Filename C:\Musica\Musica_Rippata\Jerry Lee Lewis\Sun Essentials - The Country Boy Rocks On (CD 2)\11 - Jerry Lee Lewis - Break Up.wav

Peak level 88.5 %
Track quality 100.0 %
Copy CRC E69C53DB
Cannot be verified as accurate (confidence 1) [FAD36740], AccurateRip returned [BA1069BE]
Copy OK

Track 12

Filename C:\Musica\Musica_Rippata\Jerry Lee Lewis\Sun Essentials - The Country Boy Rocks On (CD 2)\12 - Jerry Lee Lewis - Just Who Is To Blame.wav

Peak level 89.8 %
Track quality 100.0 %
Copy CRC E8C292E0
Cannot be verified as accurate (confidence 1) [610E76C1], AccurateRip returned [21930333]
Copy OK

Track 13

Filename C:\Musica\Musica_Rippata\Jerry Lee Lewis\Sun Essentials - The Country Boy Rocks On (CD 2)\13 - Jerry Lee Lewis - Charming Billy (Billy Boy).wav

Peak level 93.3 %
Track quality 99.9 %
Copy CRC 3470BF2E
Cannot be verified as accurate (confidence 1) [F52C0808], AccurateRip returned [4176752C]
Copy OK

Track 14

Filename C:\Musica\Musica_Rippata\Jerry Lee Lewis\Sun Essentials - The Country Boy Rocks On (CD 2)\14 - Jerry Lee Lewis - It Won't Happen With Me.wav

Peak level 88.5 %
Track quality 100.0 %
Copy CRC BC885B71
Cannot be verified as accurate (confidence 1) [DE379F95], AccurateRip returned [BCE4AA75]
Copy OK

Track 15

Filename C:\Musica\Musica_Rippata\Jerry Lee Lewis\Sun Essentials - The Country Boy Rocks On (CD 2)\15 - Jerry Lee Lewis - Bonnie B.wav

Peak level 88.4 %
Track quality 100.0 %
Copy CRC 65C3EE87
Cannot be verified as accurate (confidence 1) [D2CED13F], AccurateRip returned [DF7AB533]
Copy OK

Track 16

Filename C:\Musica\Musica_Rippata\Jerry Lee Lewis\Sun Essentials - The Country Boy Rocks On (CD 2)\16 - Jerry Lee Lewis - Livin' Lovin' Wreck.wav

Peak level 88.3 %
Track quality 100.0 %
Copy CRC 07B6DF7B
Cannot be verified as accurate (confidence 1) [45BF017D], AccurateRip returned [DE5FE0BD]
Copy OK

Track 17

Filename C:\Musica\Musica_Rippata\Jerry Lee Lewis\Sun Essentials - The Country Boy Rocks On (CD 2)\17 - Jerry Lee Lewis - Your Lovin' Ways.wav

Peak level 89.1 %
Track quality 100.0 %
Copy CRC F3CF829B
Cannot be verified as accurate (confidence 1) [1F58828D], AccurateRip returned [537354E7]
Copy OK

Track 18

Filename C:\Musica\Musica_Rippata\Jerry Lee Lewis\Sun Essentials - The Country Boy Rocks On (CD 2)\18 - Jerry Lee Lewis - Crazy Arms.wav

Peak level 88.4 %
Track quality 100.0 %
Copy CRC 32495054
Cannot be verified as accurate (confidence 1) [D664289F], AccurateRip returned [639BDF05]
Copy OK

Track 19

Filename C:\Musica\Musica_Rippata\Jerry Lee Lewis\Sun Essentials - The Country Boy Rocks On (CD 2)\19 - Jerry Lee Lewis - I'll Make It All Up To You.wav

Peak level 89.5 %
Track quality 100.0 %
Copy CRC 360D40F1
Cannot be verified as accurate (confidence 1) [F3B14F08], AccurateRip returned [30A9B2A4]
Copy OK

Track 20

Filename C:\Musica\Musica_Rippata\Jerry Lee Lewis\Sun Essentials - The Country Boy Rocks On (CD 2)\20 - Jerry Lee Lewis - Let's Talk About Us.wav

Peak level 90.4 %
Track quality 100.0 %
Copy CRC 84BA2028
Cannot be verified as accurate (confidence 1) [A7802A22], AccurateRip returned [E4B78228]
Copy OK

Track 21

Filename C:\Musica\Musica_Rippata\Jerry Lee Lewis\Sun Essentials - The Country Boy Rocks On (CD 2)\21 - Jerry Lee Lewis - It Hurt Me So.wav

Peak level 89.0 %
Track quality 100.0 %
Copy CRC C36705EC
Cannot be verified as accurate (confidence 1) [2AED0B3D], AccurateRip returned [40D30983]
Copy OK

Track 22

Filename C:\Musica\Musica_Rippata\Jerry Lee Lewis\Sun Essentials - The Country Boy Rocks On (CD 2)\22 - Jerry Lee Lewis - As Long As I Live.wav

Peak level 88.3 %
Track quality 99.9 %
Copy CRC 7B6DB31A
Cannot be verified as accurate (confidence 1) [43E609A3], AccurateRip returned [9C28E63D]
Copy OK

Track 23

Filename C:\Musica\Musica_Rippata\Jerry Lee Lewis\Sun Essentials - The Country Boy Rocks On (CD 2)\23 - Jerry Lee Lewis - How's My Ex Treating You .wav

Peak level 89.0 %
Track quality 99.9 %
Copy CRC 66E71EBB
Cannot be verified as accurate (confidence 1) [7BF23D89], AccurateRip returned [28343AB1]
Copy OK

Track 24

Filename C:\Musica\Musica_Rippata\Jerry Lee Lewis\Sun Essentials - The Country Boy Rocks On (CD 2)\24 - Jerry Lee Lewis - I Can't Seem To Say Goodbye.wav

Peak level 89.0 %
Track quality 100.0 %
Copy CRC 2E22C74C
Cannot be verified as accurate (confidence 1) [4127A971], AccurateRip returned [F683982B]
Copy OK

Track 25

Filename C:\Musica\Musica_Rippata\Jerry Lee Lewis\Sun Essentials - The Country Boy Rocks On (CD 2)\25 - Jerry Lee Lewis - Shame On You.wav

Peak level 90.0 %
Track quality 100.0 %
Copy CRC 678D955D
Cannot be verified as accurate (confidence 1) [38EC9DF2], AccurateRip returned [488D7B3C]
Copy OK

Track 26

Filename C:\Musica\Musica_Rippata\Jerry Lee Lewis\Sun Essentials - The Country Boy Rocks On (CD 2)\26 - Jerry Lee Lewis - I'll Sail My Ship Alone.wav

Peak level 88.7 %
Track quality 100.0 %
Copy CRC 4BA855EB
Cannot be verified as accurate (confidence 1) [A15E49FD], AccurateRip returned [D94B6A45]
Copy OK

Track 27

Filename C:\Musica\Musica_Rippata\Jerry Lee Lewis\Sun Essentials - The Country Boy Rocks On (CD 2)\27 - Jerry Lee Lewis - Someday (You'll Want Me To Want You).wav

Peak level 89.1 %
Track quality 100.0 %
Copy CRC 7A69569D
Cannot be verified as accurate (confidence 1) [B0A90A15], AccurateRip returned [21AB1C5F]
Copy OK

Track 28

Filename C:\Musica\Musica_Rippata\Jerry Lee Lewis\Sun Essentials - The Country Boy Rocks On (CD 2)\28 - Jerry Lee Lewis - Set My Mind At Ease.wav

Peak level 82.8 %
Track quality 100.0 %
Copy CRC CD0E5081
Cannot be verified as accurate (confidence 1) [04193C04], AccurateRip returned [EC062752]
Copy OK

Track 29

Filename C:\Musica\Musica_Rippata\Jerry Lee Lewis\Sun Essentials - The Country Boy Rocks On (CD 2)\29 - Jerry Lee Lewis - Seasons Of My Heart.wav

Peak level 90.7 %
Track quality 99.9 %
Copy CRC 90A332EA
Cannot be verified as accurate (confidence 1) [7C240769], AccurateRip returned [9A1B210D]
Copy OK

Track 30

Filename C:\Musica\Musica_Rippata\Jerry Lee Lewis\Sun Essentials - The Country Boy Rocks On (CD 2)\30 - Jerry Lee Lewis - It All Depends (On Who Will Buy The Wine).wav

Peak level 89.1 %
Track quality 100.0 %
Copy CRC 93A3B9DC
Cannot be verified as accurate (confidence 1) [EB6389D1], AccurateRip returned [30D2A909]
Copy OK

Track 31

Filename C:\Musica\Musica_Rippata\Jerry Lee Lewis\Sun Essentials - The Country Boy Rocks On (CD 2)\31 - Jerry Lee Lewis - Slippin' Around.wav

Peak level 89.0 %
Track quality 100.0 %
Copy CRC BADA21F9
Cannot be verified as accurate (confidence 1) [0BE5D510], AccurateRip returned [DD3229AA]
Copy OK

Track 32

Filename C:\Musica\Musica_Rippata\Jerry Lee Lewis\Sun Essentials - The Country Boy Rocks On (CD 2)\32 - Jerry Lee Lewis - Night Train To Memphis.wav

Peak level 89.4 %
Track quality 100.0 %
Copy CRC 8063616F
Cannot be verified as accurate (confidence 1) [F3CD0315], AccurateRip returned [ED8CE8C3]
Copy OK


No tracks could be verified as accurate
You may have a different pressing from the one(s) in the database

No errors occurred

End of status report


Tracklisting - CD3
1.: Big Legged Woman
2.: Rockin' With Red
3.: Sixty Minute Man
4.: So Long I'm Gone
5.: I've Been Twistin'
6.: Teenage Letter
7.: Mean Woman Blues
8.: Drinkin' Wine Spo Dee O Dee
9.: Keep Your Hands Off It
10.: Money
11.: Sick And Tired
12.: Hound Dog
13.: Cool Cool Ways (Sexy Ways)
14.: Hello Hello Baby
15.: I Know What It Means
16.: It'll Be Me (LP version)
17.: Hillbilly Music
18.: Turn Around
19.: Love's Made A Fool Of Me
20.: I Forgot To Remember To Forget
21.: Fools Like Me
22.: I Can't Trust Me (In Your Arms Anymore)
23.: I'm The Guilty One
24.: Memory Of You
25.: Don't Drop It
26.: Hand Me Down My Walking Cane
27.: Crawdad Song
28.: Crazy Arms (remake)
29.: Ramblin' Rose (extended version)
30.: Rockin' The Boat Of Love
31.: Whole Lotta Twistin' Goin' On
Exact Audio Copy V0.99 prebeta 5 from 4. May 2009

EAC extraction logfile from 29. August 2009, 10:58

Jerry Lee Lewis / Sun Essentials - Hillbilly Blues (CD 3)

Used drive : TSSTcorpCDDVDW SH-S202J Adapter: 1 ID: 0

Read mode : Secure
Utilize accurate stream : Yes
Defeat audio cache : No
Make use of C2 pointers : No

Read offset correction : 6
Overread into Lead-In and Lead-Out : No
Fill up missing offset samples with silence : Yes
Delete leading and trailing silent blocks : No
Null samples used in CRC calculations : Yes
Used interface : Installed external ASPI interface
Gap handling : Not detected, thus appended to previous track

Used output format : User Defined Encoder
Selected bitrate : 1024 kBit/s
Quality : High
Add ID3 tag : No
Command line compressor : C:\Programmi\Exact Audio Copy\FLAC\FLAC.EXE
Additional command line options : -8 -V -T "artist=%a" -T "title=%t" -T "album=%g" -T "date=%y" -T "tracknumber=%n" -T "genre=%m" %s


TOC of the extracted CD

Track | Start | Length | Start sector | End sector
––––––––––––––––––––––––––––-
1 | 0:00.00 | 2:27.55 | 0 | 11079
2 | 2:27.55 | 1:56.67 | 11080 | 19846
3 | 4:24.47 | 1:48.70 | 19847 | 28016
4 | 6:13.42 | 2:12.35 | 28017 | 37951
5 | 8:26.02 | 3:15.05 | 37952 | 52581
6 | 11:41.07 | 2:20.28 | 52582 | 63109
7 | 14:01.35 | 2:25.37 | 63110 | 74021
8 | 16:26.72 | 2:35.70 | 74022 | 85716
9 | 19:02.67 | 2:16.08 | 85717 | 95924
10 | 21:19.00 | 2:35.55 | 95925 | 107604
11 | 23:54.55 | 2:46.00 | 107605 | 120054
12 | 26:40.55 | 2:05.15 | 120055 | 129444
13 | 28:45.70 | 2:32.40 | 129445 | 140884
14 | 31:18.35 | 3:23.35 | 140885 | 156144
15 | 34:41.70 | 2:40.10 | 156145 | 168154
16 | 37:22.05 | 2:14.27 | 168155 | 178231
17 | 39:36.32 | 2:07.28 | 178232 | 187784
18 | 41:43.60 | 2:49.10 | 187785 | 200469
19 | 44:32.70 | 2:47.27 | 200470 | 213021
20 | 47:20.22 | 2:26.73 | 213022 | 224044
21 | 49:47.20 | 2:51.45 | 224045 | 236914
22 | 52:38.65 | 2:13.60 | 236915 | 246949
23 | 54:52.50 | 2:09.27 | 246950 | 256651
24 | 57:02.02 | 2:09.35 | 256652 | 266361
25 | 59:11.37 | 1:51.60 | 266362 | 274746
26 | 61:03.22 | 2:19.23 | 274747 | 285194
27 | 63:22.45 | 1:49.57 | 285195 | 293426
28 | 65:12.27 | 2:37.30 | 293427 | 305231
29 | 67:49.57 | 3:18.38 | 305232 | 320119
30 | 71:08.20 | 2:41.02 | 320120 | 332196
31 | 73:49.22 | 3:20.04 | 332197 | 347200


Track 1

Filename C:\Musica\Musica_Rippata\Jerry Lee Lewis\Sun Essentials - Hillbilly Blues (CD 3)\01 - Jerry Lee Lewis - Big Legged Woman.wav

Peak level 93.6 %
Track quality 99.9 %
Copy CRC DD1533F8
Cannot be verified as accurate (confidence 1) [024D34C8], AccurateRip returned [6764615C]
Copy OK

Track 2

Filename C:\Musica\Musica_Rippata\Jerry Lee Lewis\Sun Essentials - Hillbilly Blues (CD 3)\02 - Jerry Lee Lewis - Rockin' With Red.wav

Peak level 92.8 %
Track quality 99.9 %
Copy CRC B4E14E86
Cannot be verified as accurate (confidence 1) [68EF7DB0], AccurateRip returned [3955EED0]
Copy OK

Track 3

Filename C:\Musica\Musica_Rippata\Jerry Lee Lewis\Sun Essentials - Hillbilly Blues (CD 3)\03 - Jerry Lee Lewis - Sixty Minute Man.wav

Peak level 88.7 %
Track quality 99.9 %
Copy CRC DBA86AFC
Cannot be verified as accurate (confidence 1) [30F7FD91], AccurateRip returned [CFCB3FDD]
Copy OK

Track 4

Filename C:\Musica\Musica_Rippata\Jerry Lee Lewis\Sun Essentials - Hillbilly Blues (CD 3)\04 - Jerry Lee Lewis - So Long, I'm Gone.wav

Peak level 88.7 %
Track quality 100.0 %
Copy CRC 1B698662
Cannot be verified as accurate (confidence 1) [D291F3A1], AccurateRip returned [96633779]
Copy OK

Track 5

Filename C:\Musica\Musica_Rippata\Jerry Lee Lewis\Sun Essentials - Hillbilly Blues (CD 3)\05 - Jerry Lee Lewis - I've Been Twistin'.wav

Peak level 88.8 %
Track quality 100.0 %
Copy CRC D35B1626
Cannot be verified as accurate (confidence 1) [EF41DB6E], AccurateRip returned [2BE7F542]
Copy OK

Track 6

Filename C:\Musica\Musica_Rippata\Jerry Lee Lewis\Sun Essentials - Hillbilly Blues (CD 3)\06 - Jerry Lee Lewis - Teenage Letter.wav

Peak level 94.0 %
Track quality 100.0 %
Copy CRC 0BF112D1
Cannot be verified as accurate (confidence 1) [BE7F96A2], AccurateRip returned [7D4083EE]
Copy OK

Track 7

Filename C:\Musica\Musica_Rippata\Jerry Lee Lewis\Sun Essentials - Hillbilly Blues (CD 3)\07 - Jerry Lee Lewis - Mean Woman Blues.wav

Peak level 88.7 %
Track quality 100.0 %
Copy CRC D8CDF931
Cannot be verified as accurate (confidence 1) [0722554F], AccurateRip returned [55812E8F]
Copy OK

Track 8

Filename C:\Musica\Musica_Rippata\Jerry Lee Lewis\Sun Essentials - Hillbilly Blues (CD 3)\08 - Jerry Lee Lewis - Drinkin' Wine Spo-Dee-O-Dee.wav

Peak level 88.9 %
Track quality 100.0 %
Copy CRC A8B1AF8F
Cannot be verified as accurate (confidence 1) [9E2DCC21], AccurateRip returned [5802D41D]
Copy OK

Track 9

Filename C:\Musica\Musica_Rippata\Jerry Lee Lewis\Sun Essentials - Hillbilly Blues (CD 3)\09 - Jerry Lee Lewis - Keep Your Hands Off It (Birthday Cake).wav

Peak level 93.3 %
Track quality 100.0 %
Copy CRC 1DDD5E14
Cannot be verified as accurate (confidence 1) [4347E894], AccurateRip returned [FE5B5D40]
Copy OK

Track 10

Filename C:\Musica\Musica_Rippata\Jerry Lee Lewis\Sun Essentials - Hillbilly Blues (CD 3)\10 - Jerry Lee Lewis - Money.wav

Peak level 90.6 %
Track quality 99.9 %
Copy CRC C73E76EB
Cannot be verified as accurate (confidence 1) [CFF4B005], AccurateRip returned [4A5C3AF5]
Copy OK

Track 11

Filename C:\Musica\Musica_Rippata\Jerry Lee Lewis\Sun Essentials - Hillbilly Blues (CD 3)\11 - Jerry Lee Lewis - Sick And Tired.wav

Peak level 91.8 %
Track quality 100.0 %
Copy CRC 140920CA
Cannot be verified as accurate (confidence 1) [4A2B3A24], AccurateRip returned [5AB20280]
Copy OK

Track 12

Filename C:\Musica\Musica_Rippata\Jerry Lee Lewis\Sun Essentials - Hillbilly Blues (CD 3)\12 - Jerry Lee Lewis - Hound Dog.wav

Peak level 91.4 %
Track quality 99.9 %
Copy CRC B2BFD3B4
Cannot be verified as accurate (confidence 1) [AAFCE8A0], AccurateRip returned [82E87230]
Copy OK

Track 13

Filename C:\Musica\Musica_Rippata\Jerry Lee Lewis\Sun Essentials - Hillbilly Blues (CD 3)\13 - Jerry Lee Lewis - Cool Cool Ways (Sexy Ways).wav

Peak level 89.1 %
Track quality 100.0 %
Copy CRC 842D8345
Cannot be verified as accurate (confidence 1) [48A17327], AccurateRip returned [9692C13F]
Copy OK

Track 14

Filename C:\Musica\Musica_Rippata\Jerry Lee Lewis\Sun Essentials - Hillbilly Blues (CD 3)\14 - Jerry Lee Lewis - Hello, Hello, Baby.wav

Peak level 88.4 %
Track quality 100.0 %
Copy CRC B396CFA5
Cannot be verified as accurate (confidence 1) [7B61CC83], AccurateRip returned [E6971A5F]
Copy OK

Track 15

Filename C:\Musica\Musica_Rippata\Jerry Lee Lewis\Sun Essentials - Hillbilly Blues (CD 3)\15 - Jerry Lee Lewis - I Know What It Means.wav

Peak level 91.7 %
Track quality 100.0 %
Copy CRC 3C771322
Cannot be verified as accurate (confidence 1) [2BA010F8], AccurateRip returned [36550A18]
Copy OK

Track 16

Filename C:\Musica\Musica_Rippata\Jerry Lee Lewis\Sun Essentials - Hillbilly Blues (CD 3)\16 - Jerry Lee Lewis - It'll Be Me (L.P. Version).wav

Peak level 92.3 %
Track quality 100.0 %
Copy CRC 8212A446
Cannot be verified as accurate (confidence 1) [01FA13F9], AccurateRip returned [77BDEC55]
Copy OK

Track 17

Filename C:\Musica\Musica_Rippata\Jerry Lee Lewis\Sun Essentials - Hillbilly Blues (CD 3)\17 - Jerry Lee Lewis - Hillbilly Music.wav

Peak level 88.3 %
Track quality 100.0 %
Copy CRC 4E3714C8
Cannot be verified as accurate (confidence 1) [925D27A3], AccurateRip returned [9172C123]
Copy OK

Track 18

Filename C:\Musica\Musica_Rippata\Jerry Lee Lewis\Sun Essentials - Hillbilly Blues (CD 3)\18 - Jerry Lee Lewis - Turn Around.wav

Peak level 92.7 %
Track quality 100.0 %
Copy CRC 372B8F94
Cannot be verified as accurate (confidence 1) [C2B90222], AccurateRip returned [6E505382]
Copy OK

Track 19

Filename C:\Musica\Musica_Rippata\Jerry Lee Lewis\Sun Essentials - Hillbilly Blues (CD 3)\19 - Jerry Lee Lewis - Love's Made A Fool Of Me.wav

Peak level 88.9 %
Track quality 99.9 %
Copy CRC 57A268E0
Cannot be verified as accurate (confidence 1) [BA64B6FF], AccurateRip returned [9DA7DC23]
Copy OK

Track 20

Filename C:\Musica\Musica_Rippata\Jerry Lee Lewis\Sun Essentials - Hillbilly Blues (CD 3)\20 - Jerry Lee Lewis - I Forgot To Remember To Forget.wav

Peak level 89.0 %
Track quality 100.0 %
Copy CRC D5872B74
Cannot be verified as accurate (confidence 1) [B584E4C4], AccurateRip returned [ABCCBFEC]
Copy OK

Track 21

Filename C:\Musica\Musica_Rippata\Jerry Lee Lewis\Sun Essentials - Hillbilly Blues (CD 3)\21 - Jerry Lee Lewis - Fools Like Me.wav

Peak level 88.3 %
Track quality 100.0 %
Copy CRC 30065E53
Cannot be verified as accurate (confidence 1) [0A11C7BD], AccurateRip returned [9A0EA941]
Copy OK

Track 22

Filename C:\Musica\Musica_Rippata\Jerry Lee Lewis\Sun Essentials - Hillbilly Blues (CD 3)\22 - Jerry Lee Lewis - I Can't Trust Me.wav

Peak level 89.5 %
Track quality 99.9 %
Copy CRC 3550C65E
Cannot be verified as accurate (confidence 1) [018F7696], AccurateRip returned [D69E6752]
Copy OK

Track 23

Filename C:\Musica\Musica_Rippata\Jerry Lee Lewis\Sun Essentials - Hillbilly Blues (CD 3)\23 - Jerry Lee Lewis - I'm The Guilty One.wav

Peak level 89.0 %
Track quality 100.0 %
Copy CRC 1BF29232
Cannot be verified as accurate (confidence 1) [22EEF83F], AccurateRip returned [37FA2C4F]
Copy OK

Track 24

Filename C:\Musica\Musica_Rippata\Jerry Lee Lewis\Sun Essentials - Hillbilly Blues (CD 3)\24 - Jerry Lee Lewis - Memory Of You.wav

Peak level 88.7 %
Track quality 100.0 %
Copy CRC 227F4797
Cannot be verified as accurate (confidence 1) [EC15FB73], AccurateRip returned [7876064F]
Copy OK

Track 25

Filename C:\Musica\Musica_Rippata\Jerry Lee Lewis\Sun Essentials - Hillbilly Blues (CD 3)\25 - Jerry Lee Lewis - Don't Drop It.wav

Peak level 93.5 %
Track quality 100.0 %
Copy CRC B4D9FF8D
Cannot be verified as accurate (confidence 1) [68AE87F2], AccurateRip returned [85F0FD32]
Copy OK

Track 26

Filename C:\Musica\Musica_Rippata\Jerry Lee Lewis\Sun Essentials - Hillbilly Blues (CD 3)\26 - Jerry Lee Lewis - Hand Me Down My Walking Cane.wav

Peak level 89.0 %
Track quality 100.0 %
Copy CRC 2D99CD9C
Cannot be verified as accurate (confidence 1) [43B43E6F], AccurateRip returned [8018950B]
Copy OK

Track 27

Filename C:\Musica\Musica_Rippata\Jerry Lee Lewis\Sun Essentials - Hillbilly Blues (CD 3)\27 - Jerry Lee Lewis - Crawdad Song.wav

Peak level 89.7 %
Track quality 100.0 %
Copy CRC BE8AED10
Cannot be verified as accurate (confidence 1) [01917D09], AccurateRip returned [FB3835A1]
Copy OK

Track 28

Filename C:\Musica\Musica_Rippata\Jerry Lee Lewis\Sun Essentials - Hillbilly Blues (CD 3)\28 - Jerry Lee Lewis - Crazy Arms.wav

Peak level 88.2 %
Track quality 99.9 %
Copy CRC 013925F1
Cannot be verified as accurate (confidence 1) [B3F7E3AD], AccurateRip returned [2528DE4D]
Copy OK

Track 29

Filename C:\Musica\Musica_Rippata\Jerry Lee Lewis\Sun Essentials - Hillbilly Blues (CD 3)\29 - Jerry Lee Lewis - Ramblin' Rose.wav

Peak level 91.0 %
Track quality 100.0 %
Copy CRC 425C07C7
Cannot be verified as accurate (confidence 1) [34E7B396], AccurateRip returned [31E29632]
Copy OK

Track 30

Filename C:\Musica\Musica_Rippata\Jerry Lee Lewis\Sun Essentials - Hillbilly Blues (CD 3)\30 - Jerry Lee Lewis - Rockin' The Boat Of Love.wav

Peak level 90.0 %
Track quality 99.9 %
Copy CRC 95AD0E72
Cannot be verified as accurate (confidence 1) [2137BE6B], AccurateRip returned [CB878FC3]
Copy OK

Track 31

Filename C:\Musica\Musica_Rippata\Jerry Lee Lewis\Sun Essentials - Hillbilly Blues (CD 3)\31 - Jerry Lee Lewis - Whole Lotta' Twistin' Goin' On.wav

Peak level 88.3 %
Track quality 100.0 %
Copy CRC FE7DCB4A
Cannot be verified as accurate (confidence 1) [B0BEBDAA], AccurateRip returned [4CE875BE]
Copy OK


No tracks could be verified as accurate
You may have a different pressing from the one(s) in the database

No errors occurred

End of status report


Tracklisting - CD4
1.: What'd I Say
2.: Honey Hush
3.: Tomorrow Night
4.: Carrying On (Sexy Ways)
5.: Good Rockin' Tonight
6.: Come What May
7.: Hello Josephine
8.: Little Queenie
9.: Johnny B Goode
10.: Hang Up My Rock 'n' Roll Shoe
11.: Sweet Little Sixteen
12.: Matchbox
13.: CC Rider
14.: Lewis Boogie
15.: Ballad Of Billy Joe
16.: My Pretty Quadroon
17.: Hong Kong Blues
18.: That Lucky Old Sun
19.: Goodnight Irene
20.: Will The Circle Be Unbroken
21.: Great Speckled Bird
22.: John Henry
23.: Frankie And Johnny
24.: You're The Only Star In My Blue Heaven
25.: Waiting For A Train
26.: Old Pal Of Yesterday
27.: Mexicali Rose (slow version)
28.: Deep Elem Blues
29.: You Are My Sunshine
30.: Carry Me Back To Old Virginia
31.: Marine's Hymn
32.: That's My Desire
33.: Just A Little Talk With Jesus
Exact Audio Copy V0.99 prebeta 5 from 4. May 2009

EAC extraction logfile from 29. August 2009, 11:10

Jerry Lee Lewis / Sun Essentials - Something Old, Something Blue (CD 4)

Used drive : TSSTcorpCDDVDW SH-S202J Adapter: 1 ID: 0

Read mode : Secure
Utilize accurate stream : Yes
Defeat audio cache : No
Make use of C2 pointers : No

Read offset correction : 6
Overread into Lead-In and Lead-Out : No
Fill up missing offset samples with silence : Yes
Delete leading and trailing silent blocks : No
Null samples used in CRC calculations : Yes
Used interface : Installed external ASPI interface
Gap handling : Not detected, thus appended to previous track

Used output format : User Defined Encoder
Selected bitrate : 1024 kBit/s
Quality : High
Add ID3 tag : No
Command line compressor : C:\Programmi\Exact Audio Copy\FLAC\FLAC.EXE
Additional command line options : -8 -V -T "artist=%a" -T "title=%t" -T "album=%g" -T "date=%y" -T "tracknumber=%n" -T "genre=%m" %s


TOC of the extracted CD

Track | Start | Length | Start sector | End sector
––––––––––––––––––––––––––––-
1 | 0:00.00 | 2:28.06 | 0 | 11105
2 | 2:28.06 | 2:05.45 | 11106 | 20525
3 | 4:33.51 | 3:00.53 | 20526 | 34078
4 | 7:34.29 | 2:00.71 | 34079 | 43149
5 | 9:35.25 | 2:41.58 | 43150 | 55282
6 | 12:17.08 | 2:04.38 | 55283 | 64620
7 | 14:21.46 | 1:42.28 | 64621 | 72298
8 | 16:03.74 | 2:23.51 | 72299 | 83074
9 | 18:27.50 | 1:55.16 | 83075 | 91715
10 | 20:22.66 | 2:34.01 | 91716 | 103266
11 | 22:56.67 | 2:55.14 | 103267 | 116405
12 | 25:52.06 | 1:50.39 | 116406 | 124694
13 | 27:42.45 | 2:26.52 | 124695 | 135696
14 | 30:09.22 | 2:00.53 | 135697 | 144749
15 | 32:10.00 | 2:59.01 | 144750 | 158175
16 | 35:09.01 | 2:53.50 | 158176 | 171200
17 | 38:02.51 | 2:29.54 | 171201 | 182429
18 | 40:32.30 | 3:10.43 | 182430 | 196722
19 | 43:42.73 | 2:55.20 | 196723 | 209867
20 | 46:38.18 | 2:23.54 | 209868 | 220646
21 | 49:01.72 | 1:42.46 | 220647 | 228342
22 | 50:44.43 | 2:31.32 | 228343 | 239699
23 | 53:16.00 | 2:33.66 | 239700 | 251240
24 | 55:49.66 | 1:49.71 | 251241 | 259486
25 | 57:39.62 | 1:42.23 | 259487 | 267159
26 | 59:22.10 | 2:36.24 | 267160 | 278883
27 | 61:58.34 | 1:57.40 | 278884 | 287698
28 | 63:55.74 | 2:42.41 | 287699 | 299889
29 | 66:38.40 | 2:11.45 | 299890 | 309759
30 | 68:50.10 | 2:24.48 | 309760 | 320607
31 | 71:14.58 | 1:18.14 | 320608 | 326471
32 | 72:32.72 | 3:13.39 | 326472 | 340985
33 | 75:46.36 | 2:27.39 | 340986 | 352049


Track 1

Filename C:\Musica\Musica_Rippata\Jerry Lee Lewis\Sun Essentials - Something Old, Something Blue (CD 4)\01 - Jerry Lee Lewis - What'd I Say.wav

Peak level 87.8 %
Track quality 99.9 %
Copy CRC 43B97E72
Cannot be verified as accurate (confidence 1) [59CF3C99], AccurateRip returned [63BE3574]
Copy OK

Track 2

Filename C:\Musica\Musica_Rippata\Jerry Lee Lewis\Sun Essentials - Something Old, Something Blue (CD 4)\02 - Jerry Lee Lewis - Honey Hush.wav

Peak level 87.5 %
Track quality 100.0 %
Copy CRC 42FFF351
Cannot be verified as accurate (confidence 1) [70EBB7FF], AccurateRip returned [35D7CE2F]
Copy OK

Track 3

Filename C:\Musica\Musica_Rippata\Jerry Lee Lewis\Sun Essentials - Something Old, Something Blue (CD 4)\03 - Jerry Lee Lewis - Tomorrow Night.wav

Peak level 98.8 %
Track quality 100.0 %
Copy CRC F1AD3C4B
Cannot be verified as accurate (confidence 1) [4E0084B6], AccurateRip returned [BEBC762A]
Copy OK

Track 4

Filename C:\Musica\Musica_Rippata\Jerry Lee Lewis\Sun Essentials - Something Old, Something Blue (CD 4)\04 - Jerry Lee Lewis - Carryin' On (Sexy Ways).wav

Peak level 77.4 %
Track quality 100.0 %
Copy CRC 03F9F0B1
Cannot be verified as accurate (confidence 1) [A4960D4A], AccurateRip returned [243FF15A]
Copy OK

Track 5

Filename C:\Musica\Musica_Rippata\Jerry Lee Lewis\Sun Essentials - Something Old, Something Blue (CD 4)\05 - Jerry Lee Lewis - Good Rockin' Tonight.wav

Peak level 83.4 %
Track quality 100.0 %
Copy CRC ABDF2988
Cannot be verified as accurate (confidence 1) [FC475BD7], AccurateRip returned [4E8E1F37]
Copy OK

Track 6

Filename C:\Musica\Musica_Rippata\Jerry Lee Lewis\Sun Essentials - Something Old, Something Blue (CD 4)\06 - Jerry Lee Lewis - Come What May.wav

Peak level 88.1 %
Track quality 99.9 %
Copy CRC 1DD11F16
Cannot be verified as accurate (confidence 1) [E1F701F8], AccurateRip returned [B0D7CF40]
Copy OK

Track 7

Filename C:\Musica\Musica_Rippata\Jerry Lee Lewis\Sun Essentials - Something Old, Something Blue (CD 4)\07 - Jerry Lee Lewis - Hello Josephine.wav

Peak level 80.9 %
Track quality 100.0 %
Copy CRC 2975683D
Cannot be verified as accurate (confidence 1) [2DF7EC10], AccurateRip returned [6BAF761C]
Copy OK

Track 8

Filename C:\Musica\Musica_Rippata\Jerry Lee Lewis\Sun Essentials - Something Old, Something Blue (CD 4)\08 - Jerry Lee Lewis - Little Queenie.wav

Peak level 87.6 %
Track quality 100.0 %
Copy CRC CE49CB57
Cannot be verified as accurate (confidence 1) [89607997], AccurateRip returned [591B31CF]
Copy OK

Track 9

Filename C:\Musica\Musica_Rippata\Jerry Lee Lewis\Sun Essentials - Something Old, Something Blue (CD 4)\09 - Jerry Lee Lewis - Johnny B. Goode.wav

Peak level 88.5 %
Track quality 99.9 %
Copy CRC 39ABAA49
Cannot be verified as accurate (confidence 1) [5ADBD816], AccurateRip returned [3D1AFF32]
Copy OK

Track 10

Filename C:\Musica\Musica_Rippata\Jerry Lee Lewis\Sun Essentials - Something Old, Something Blue (CD 4)\10 - Jerry Lee Lewis - Hang Up My Rock'n'Roll Shoes.wav

Peak level 88.5 %
Track quality 100.0 %
Copy CRC 7D08AFD8
Cannot be verified as accurate (confidence 1) [3399F991], AccurateRip returned [BE336F8D]
Copy OK

Track 11

Filename C:\Musica\Musica_Rippata\Jerry Lee Lewis\Sun Essentials - Something Old, Something Blue (CD 4)\11 - Jerry Lee Lewis - Sweet Little Sixteen.wav

Peak level 88.0 %
Track quality 100.0 %
Copy CRC E58040DF
Cannot be verified as accurate (confidence 1) [EE471EF9], AccurateRip returned [6CF8E851]
Copy OK

Track 12

Filename C:\Musica\Musica_Rippata\Jerry Lee Lewis\Sun Essentials - Something Old, Something Blue (CD 4)\12 - Jerry Lee Lewis - Matchbox (Alternate Take).wav

Peak level 87.6 %
Track quality 100.0 %
Copy CRC 2C77E2CB
Cannot be verified as accurate (confidence 1) [D0ABD21E], AccurateRip returned [CB29036E]
Copy OK

Track 13

Filename C:\Musica\Musica_Rippata\Jerry Lee Lewis\Sun Essentials - Something Old, Something Blue (CD 4)\13 - Jerry Lee Lewis - C. C. Rider.wav

Peak level 87.6 %
Track quality 100.0 %
Copy CRC F8B192A1
Cannot be verified as accurate (confidence 1) [F0DCAA02], AccurateRip returned [FA2784AE]
Copy OK

Track 14

Filename C:\Musica\Musica_Rippata\Jerry Lee Lewis\Sun Essentials - Something Old, Something Blue (CD 4)\14 - Jerry Lee Lewis - Lewis Boogie.wav

Peak level 88.5 %
Track quality 100.0 %
Copy CRC A35ED832
Cannot be verified as accurate (confidence 1) [166228B4], AccurateRip returned [15FEB250]
Copy OK

Track 15

Filename C:\Musica\Musica_Rippata\Jerry Lee Lewis\Sun Essentials - Something Old, Something Blue (CD 4)\15 - Jerry Lee Lewis - The Ballad of Billy Joe.wav

Peak level 87.6 %
Track quality 100.0 %
Copy CRC 8270B831
Cannot be verified as accurate (confidence 1) [23C3B56B], AccurateRip returned [7345F49F]
Copy OK

Track 16

Filename C:\Musica\Musica_Rippata\Jerry Lee Lewis\Sun Essentials - Something Old, Something Blue (CD 4)\16 - Jerry Lee Lewis - My Pretty Quadroon.wav

Peak level 87.6 %
Track quality 99.9 %
Copy CRC EF438289
Cannot be verified as accurate (confidence 1) [0FB74D74], AccurateRip returned [A22810BC]
Copy OK

Track 17

Filename C:\Musica\Musica_Rippata\Jerry Lee Lewis\Sun Essentials - Something Old, Something Blue (CD 4)\17 - Jerry Lee Lewis - Hong Kong Blues (Down In Old Hong Kong).wav

Peak level 100.0 %
Track quality 100.0 %
Copy CRC B40FC508
Cannot be verified as accurate (confidence 1) [28DA470F], AccurateRip returned [E75CF61F]
Copy OK

Track 18

Filename C:\Musica\Musica_Rippata\Jerry Lee Lewis\Sun Essentials - Something Old, Something Blue (CD 4)\18 - Jerry Lee Lewis - That Lucky Old Sun.wav

Peak level 90.9 %
Track quality 99.9 %
Copy CRC 2CA87BA8
Cannot be verified as accurate (confidence 1) [4E10096A], AccurateRip returned [CEBF49BA]
Copy OK

Track 19

Filename C:\Musica\Musica_Rippata\Jerry Lee Lewis\Sun Essentials - Something Old, Something Blue (CD 4)\19 - Jerry Lee Lewis - Goodnight Irene (Undubbed Master).wav

Peak level 87.6 %
Track quality 100.0 %
Copy CRC 1CA98283
Cannot be verified as accurate (confidence 1) [2A450D60], AccurateRip returned [5E707104]
Copy OK

Track 20

Filename C:\Musica\Musica_Rippata\Jerry Lee Lewis\Sun Essentials - Something Old, Something Blue (CD 4)\20 - Jerry Lee Lewis - Will The Circle Be Unbroken.wav

Peak level 88.0 %
Track quality 100.0 %
Copy CRC A76C1A86
Cannot be verified as accurate (confidence 1) [7161E52C], AccurateRip returned [79254C9C]
Copy OK

Track 21

Filename C:\Musica\Musica_Rippata\Jerry Lee Lewis\Sun Essentials - Something Old, Something Blue (CD 4)\21 - Jerry Lee Lewis - The Great Speckled Bird.wav

Peak level 87.8 %
Track quality 99.8 %
Copy CRC CBA85326
Cannot be verified as accurate (confidence 1) [74FA0E04], AccurateRip returned [E1F93394]
Copy OK

Track 22

Filename C:\Musica\Musica_Rippata\Jerry Lee Lewis\Sun Essentials - Something Old, Something Blue (CD 4)\22 - Jerry Lee Lewis - John Henry.wav

Peak level 95.6 %
Track quality 99.9 %
Copy CRC F400068C
Cannot be verified as accurate (confidence 1) [78F6CB25], AccurateRip returned [A063DDD5]
Copy OK

Track 23

Filename C:\Musica\Musica_Rippata\Jerry Lee Lewis\Sun Essentials - Something Old, Something Blue (CD 4)\23 - Jerry Lee Lewis - Frankie and Johnny.wav

Peak level 85.5 %
Track quality 100.0 %
Copy CRC 711BFBA3
Cannot be verified as accurate (confidence 1) [3C62501A], AccurateRip returned [A7829B76]
Copy OK

Track 24

Filename C:\Musica\Musica_Rippata\Jerry Lee Lewis\Sun Essentials - Something Old, Something Blue (CD 4)\24 - Jerry Lee Lewis - You're The Only Star In My Blue Heaven.wav

Peak level 87.5 %
Track quality 100.0 %
Copy CRC 645F8AAE
Cannot be verified as accurate (confidence 1) [4728F6C8], AccurateRip returned [2C838D68]
Copy OK

Track 25

Filename C:\Musica\Musica_Rippata\Jerry Lee Lewis\Sun Essentials - Something Old, Something Blue (CD 4)\25 - Jerry Lee Lewis - Waiting For A Train (All Around The Watertank).wav

Peak level 91.2 %
Track quality 100.0 %
Copy CRC 72F475DA
Cannot be verified as accurate (confidence 1) [7277FD18], AccurateRip returned [4D43707C]
Copy OK

Track 26

Filename C:\Musica\Musica_Rippata\Jerry Lee Lewis\Sun Essentials - Something Old, Something Blue (CD 4)\26 - Jerry Lee Lewis - Old Pal Of Yesterday.wav

Peak level 80.5 %
Track quality 100.0 %
Copy CRC 6F82EF85
Cannot be verified as accurate (confidence 1) [78F57B9B], AccurateRip returned [BB330597]
Copy OK

Track 27

Filename C:\Musica\Musica_Rippata\Jerry Lee Lewis\Sun Essentials - Something Old, Something Blue (CD 4)\27 - Jerry Lee Lewis - Mexicali Rose (Slow Version).wav

Peak level 92.4 %
Track quality 99.9 %
Copy CRC 333CAD2D
Cannot be verified as accurate (confidence 1) [59ADECC4], AccurateRip returned [7264247C]
Copy OK

Track 28

Filename C:\Musica\Musica_Rippata\Jerry Lee Lewis\Sun Essentials - Something Old, Something Blue (CD 4)\28 - Jerry Lee Lewis - Deep Elem Blues.wav

Peak level 100.0 %
Track quality 100.0 %
Copy CRC FCC22CBC
Cannot be verified as accurate (confidence 1) [7C7135D2], AccurateRip returned [7C5A8262]
Copy OK

Track 29

Filename C:\Musica\Musica_Rippata\Jerry Lee Lewis\Sun Essentials - Something Old, Something Blue (CD 4)\29 - Jerry Lee Lewis - You Are My Sunshine.wav

Peak level 88.3 %
Track quality 100.0 %
Copy CRC 91C48A84
Cannot be verified as accurate (confidence 1) [EF382043], AccurateRip returned [F7C3202F]
Copy OK

Track 30

Filename C:\Musica\Musica_Rippata\Jerry Lee Lewis\Sun Essentials - Something Old, Something Blue (CD 4)\30 - Jerry Lee Lewis - The Marines' Hymn (From The Halls Of Montezuma).wav

Peak level 88.3 %
Track quality 100.0 %
Copy CRC 938AE3A8
Cannot be verified as accurate (confidence 1) [DB9D8C2B], AccurateRip returned [6624A393]
Copy OK

Track 31

Filename C:\Musica\Musica_Rippata\Jerry Lee Lewis\Sun Essentials - Something Old, Something Blue (CD 4)\31 - Jerry Lee Lewis - That's My Desire.wav

Peak level 88.2 %
Track quality 100.0 %
Copy CRC 09DA8126
Cannot be verified as accurate (confidence 1) [5C86751E], AccurateRip returned [F8C571A2]
Copy OK

Track 32

Filename C:\Musica\Musica_Rippata\Jerry Lee Lewis\Sun Essentials - Something Old, Something Blue (CD 4)\32 - Jerry Lee Lewis - Just A Little Talk With Jesus (With Elvis Presley).wav

Peak level 88.0 %
Track quality 100.0 %
Copy CRC 92F64672
Cannot be verified as accurate (confidence 1) [99FD18A9], AccurateRip returned [CC52B8E1]
Copy OK

Track 33

Filename C:\Musica\Musica_Rippata\Jerry Lee Lewis\Sun Essentials - Something Old, Something Blue (CD 4)\33 - Jerry Lee Lewis - Carry Me Back To Old Virginia.wav

Peak level 92.9 %
Track quality 100.0 %
Copy CRC 26AEB5AC
Cannot be verified as accurate (confidence 1) [B9FA1E13], AccurateRip returned [3126C3DF]
Copy OK


No tracks could be verified as accurate
You may have a different pressing from the one(s) in the database

No errors occurred

End of status report