Subcategories

VA - 25 Hits of the 60's Volume 1-4 (1994)

Posted By: v3122
VA - 25 Hits of the 60's Volume 1-4 (1994)

VA - 25 Hits of the 60's Volume 1-4 (1994)
EAC | Flac(Image) + Cue + Log & MP3 CBR 320Kbps
4CD | K-BOX 032AN, 032BN, 032CN, 032DN | ~ 1601 or 656 Mb | Scans(png) -> 28 Mb
Classic Rock, Pop, Soul

~ Iron Butterfly, Bee Gees, Roy Orbison, Yardbirds, The Small Faces, Nina Simone, The Beach Boys and many more! ~

VA - 25 Hits of the 60's Volume 1-4 (1994):

VA - 25 Hits of the 60's Volume 1-4 (1994)

Tracklist CD1 - 25 Hits of the 60's Volume 1:

[01] Iron Butterfly – In- A – Gadda – Da -Vida
[02] The Bee Gees – Spicks & Specks
[03] Aaron Neville – Tell It Like It Us
[04] The Beach Boys – Barbee
[05] Fats Domino – Hello Josephine
[06] Percy Sledge – Take Time To Know Her
[07] Wilson Picket – If You Need Me
[08] Jan & Dean – The Little Old Lady (From Pasadena)
[09] Gerry & The Pacemakers – Ferry Cross The Mersey
[10] Roy Orbison – Too Soon To Know
[11] Wayne Fontana & The Mindbenders – A Groovy Kind Of Love
[12] The Drifters – Under The Boardwalk
[13] Chris Andrews – To Whom It Concerns
[14] Sam & Dave – Soul Man
[15] Christie – Yellow River
[16] Jewel Akens – The Birds And The Bees
[17] Del Shannon – Runaway
[18] Dave Berry – Little Things
[19] The Foundations – Build Me Up, Buttercup
[20] The Yardbirds (with Eric Clapton) – For Your Love
[21] Sam The Sham & The Pharaos – Wooly Bully
[22] The Guess Who – Shakin All Over
[23] The Small Faces – Itchycoo Park
[24] Georgie Fame & The Blue Flames – Get Away
[25] The Troggs – With A Girl Like You

Exact Audio Copy V1.0 beta 6 from 9. April 2015

EAC extraction logfile from 9. June 2015, 10:42

Various / 25 Hits of the 60's Volume 1 of 4

Used drive : ASUS SDRW-08D1S-U Adapter: 1 ID: 1

Read mode : Secure
Utilize accurate stream : Yes
Defeat audio cache : Yes
Make use of C2 pointers : No

Read offset correction : 667
Overread into Lead-In and Lead-Out : No
Fill up missing offset samples with silence : Yes
Delete leading and trailing silent blocks : No
Null samples used in CRC calculations : Yes
Used interface : Native Win32 interface for Win NT & 2000

Used output format : User Defined Encoder
Selected bitrate : 128 kBit/s
Quality : High
Add ID3 tag : No
Command line compressor : C:\Program Files (x86)\Exact Audio Copy\Flac\flac.exe
Additional command line options : -V -8 -T "Date=%year%" -T "Genre=%genre%" %source%


TOC of the extracted CD

Track | Start | Length | Start sector | End sector
––––––––––––––––––––––––––––-
1 | 0:00.00 | 3:03.15 | 0 | 13739
2 | 3:03.15 | 2:50.22 | 13740 | 26511
3 | 5:53.37 | 3:04.46 | 26512 | 40357
4 | 8:58.08 | 2:07.72 | 40358 | 49954
5 | 11:06.05 | 2:18.40 | 49955 | 60344
6 | 13:24.45 | 2:57.53 | 60345 | 73672
7 | 16:22.23 | 2:32.57 | 73673 | 85129
8 | 18:55.05 | 2:29.28 | 85130 | 96332
9 | 21:24.33 | 2:25.40 | 96333 | 107247
10 | 23:49.73 | 2:46.40 | 107248 | 119737
11 | 26:36.38 | 1:59.15 | 119738 | 128677
12 | 28:35.53 | 2:43.45 | 128678 | 140947
13 | 31:19.23 | 2:37.72 | 140948 | 152794
14 | 33:57.20 | 2:57.13 | 152795 | 166082
15 | 36:54.33 | 2:45.50 | 166083 | 178507
16 | 39:40.08 | 1:57.62 | 178508 | 187344
17 | 41:37.70 | 2:19.63 | 187345 | 197832
18 | 43:57.58 | 2:24.60 | 197833 | 208692
19 | 46:22.43 | 2:52.20 | 208693 | 221612
20 | 49:14.63 | 2:28.60 | 221613 | 232772
21 | 51:43.48 | 2:21.32 | 232773 | 243379
22 | 54:05.05 | 3:25.65 | 243380 | 258819
23 | 57:30.70 | 2:47.33 | 258820 | 271377
24 | 60:18.28 | 5:09.42 | 271378 | 294594
25 | 65:27.70 | 2:14.23 | 294595 | 304667


Range status and errors

Selected range

Filename C:\Users\Олег\Desktop\vol 1\Various - 25 Hits of the 60's Volume 1 of 4.wav

Peak level 100.0 %
Extraction speed 4.1 X
Range quality 100.0 %
Test CRC 2A9953D3
Copy CRC 2A9953D3
Copy OK

No errors occurred


AccurateRip summary

Track 1 not present in database
Track 2 not present in database
Track 3 not present in database
Track 4 not present in database
Track 5 not present in database
Track 6 not present in database
Track 7 not present in database
Track 8 not present in database
Track 9 not present in database
Track 10 not present in database
Track 11 not present in database
Track 12 not present in database
Track 13 not present in database
Track 14 not present in database
Track 15 not present in database
Track 16 not present in database
Track 17 not present in database
Track 18 not present in database
Track 19 not present in database
Track 20 not present in database
Track 21 not present in database
Track 22 not present in database
Track 23 not present in database
Track 24 not present in database
Track 25 not present in database

None of the tracks are present in the AccurateRip database

End of status report

–– CUETools DB Plugin V2.1.6

[CTDB TOCID: .EmWkKpl2hVu4imwO7_0qDZrQ10-] disk not present in database
Submit result: .EmWkKpl2hVu4imwO7_0qDZrQ10- has been uploaded


==== Log checksum 080F90E5DC00EA65183348EC34BEF79B9ABB62292F9942F3A528ECAFCADDC6F3 ====


VA - 25 Hits of the 60's Volume 1-4 (1994)

Tracklist CD2 - 25 Hits of the 60's Volume 2:

[01] The Troggs – Wild Thing
[02] John Fred & Playboyband – Judy In Disguise (With Glasses)
[03] The Drifters – Stand By Me
[04] Jay & The Americans – Cara Mia
[05] The Box Tops – The Letter
[06] Trini Lopez – If I Had A Hammer
[07] Del Shannon – The Swiss Maid
[08] Nina Simone – Ain, t Got No – I Got Life (Medley)
[09] Gerry & The Pacemakers – Don’t Let The Sun Catch You Crying
[10] Dave Berry – The Crying Game
[11] Kenny Rogers – Ruby (Don’t Take Your Love To Town)
[12] Ned Miller – From A Jack To A King
[13] Ben E. King – Stand By Me
[14] Chubby Checker – Limbo Rock
[15] The Shangri –Las – Remember (Walking In The Sand)
[16] Gene Pitney – I’m Gonna Be Strong
[17] Jan & Dean – Little Deuce Coupe
[18] Oliver – Good Morning Starshine
[19] The Shirelles – Will You Love Me Tomorrow
[20] Vic Dana – Red Roses For A Blue Lady
[21] Roger Miller – King Of The Road
[22] The Chiffons – Sweet Talkin Guy
[23] Bobby Freeman – Do You Wanna Dance
[24] Bobby Hebb – Sunny
[25] Sandy Nelson – Let There Be Drums

Exact Audio Copy V1.0 beta 6 from 9. April 2015

EAC extraction logfile from 9. June 2015, 11:26

Various / 25 Hits of the 60's Volume 2 of 4

Used drive : ASUS SDRW-08D1S-U Adapter: 1 ID: 1

Read mode : Secure
Utilize accurate stream : Yes
Defeat audio cache : Yes
Make use of C2 pointers : No

Read offset correction : 667
Overread into Lead-In and Lead-Out : No
Fill up missing offset samples with silence : Yes
Delete leading and trailing silent blocks : No
Null samples used in CRC calculations : Yes
Used interface : Native Win32 interface for Win NT & 2000

Used output format : User Defined Encoder
Selected bitrate : 128 kBit/s
Quality : High
Add ID3 tag : No
Command line compressor : C:\Program Files (x86)\Exact Audio Copy\Flac\flac.exe
Additional command line options : -V -8 -T "Date=%year%" -T "Genre=%genre%" %source%


TOC of the extracted CD

Track | Start | Length | Start sector | End sector
––––––––––––––––––––––––––––-
1 | 0:00.00 | 2:40.50 | 0 | 12049
2 | 2:40.50 | 2:55.55 | 12050 | 25229
3 | 5:36.30 | 3:46.20 | 25230 | 42199
4 | 9:22.50 | 2:35.60 | 42200 | 53884
5 | 11:58.35 | 1:57.07 | 53885 | 62666
6 | 13:55.42 | 2:59.30 | 62667 | 76121
7 | 16:54.72 | 2:04.13 | 76122 | 85434
8 | 18:59.10 | 2:59.42 | 85435 | 98901
9 | 21:58.52 | 2:36.33 | 98902 | 110634
10 | 24:35.10 | 2:43.17 | 110635 | 122876
11 | 27:18.27 | 2:56.00 | 122877 | 136076
12 | 30:14.27 | 2:09.05 | 136077 | 145756
13 | 32:23.32 | 2:59.10 | 145757 | 159191
14 | 35:22.42 | 2:30.48 | 159192 | 170489
15 | 37:53.15 | 2:11.65 | 170490 | 180379
16 | 40:05.05 | 2:16.50 | 180380 | 190629
17 | 42:21.55 | 1:53.35 | 190630 | 199139
18 | 44:15.15 | 3:39.67 | 199140 | 215631
19 | 47:55.07 | 2:41.00 | 215632 | 227706
20 | 50:36.07 | 2:31.70 | 227707 | 239101
21 | 53:08.02 | 2:24.55 | 239102 | 249956
22 | 55:32.57 | 2:14.52 | 249957 | 260058
23 | 57:47.34 | 2:31.38 | 260059 | 271421
24 | 60:18.72 | 2:40.20 | 271422 | 283441
25 | 62:59.17 | 2:19.30 | 283442 | 293896


Range status and errors

Selected range

Filename C:\Users\Олег\Desktop\vol 2\Various - 25 Hits of the 60's Volume 2 of 4.wav

Peak level 100.0 %
Extraction speed 3.2 X
Range quality 99.9 %
Test CRC 1D85F4FC
Copy CRC 1D85F4FC
Copy OK

No errors occurred


AccurateRip summary

Track 1 not present in database
Track 2 not present in database
Track 3 not present in database
Track 4 not present in database
Track 5 not present in database
Track 6 not present in database
Track 7 not present in database
Track 8 not present in database
Track 9 not present in database
Track 10 not present in database
Track 11 not present in database
Track 12 not present in database
Track 13 not present in database
Track 14 not present in database
Track 15 not present in database
Track 16 not present in database
Track 17 not present in database
Track 18 not present in database
Track 19 not present in database
Track 20 not present in database
Track 21 not present in database
Track 22 not present in database
Track 23 not present in database
Track 24 not present in database
Track 25 not present in database

None of the tracks are present in the AccurateRip database

End of status report

–– CUETools DB Plugin V2.1.6

[CTDB TOCID: 2h3Rg5Ms9uGsf2QS91Yv3Le7UNs-] disk not present in database
Submit result: 2h3Rg5Ms9uGsf2QS91Yv3Le7UNs- has been uploaded


==== Log checksum 98700E46DC4C6B042CE008ABE2192E83DEB1C09AC4268BDCD7ED884F1313CF4A ====


VA - 25 Hits of the 60's Volume 1-4 (1994)

Tracklist CD3 - 25 Hits of the 60's Volume 3:

[01] Percy Sledge – When A Man Loves A Woman
[02] Gene Pitney – Something, s Gotten Hold Of My Heart
[03] P.P. Arnold – The First Cut Is The Deepest
[04] Billy Joe Royal – Down In The Boondocks
[05] The Beach Boys – Surfin,
[06] Georgie Fame & The Blue Flames – Yeh – Yeh!
[07] James Brown – It’s A Man’s, Man’s World
[08] The Platters – Harbour Lights
[09] Tommy Roe – Sheila
[10] Jan & Dean – Dead Man’s Curve
[11] Gary Puckett & The Union Gap – Young Girl
[12] The Association - Windy
[13] The Chiffons – He’s So Fine
[14] The Shangri –Las – Leader Of The Pack
[15] The Dixie Cups – Chapel Of Love
[16] Wayne Fontana & The Mindbenders – Game Of Love
[17] Dave Dee, Dozy, Beaky, Mick & Tich – The Legend Of Xanadu
[18] The Crystals – Then He Kissed Me
[19] Chubby Checker – The Twist
[20] Del Shannon – Keep Searchin, (We,ll Follow The Sun)
[21] The Drifters – Save The Last Dance For Me
[22] Bobby Vee – Rubber Ball
[23] Sue Thompson – Norman
[24] The Beach Boys – Surfer Girl
[25] The Surfaris – Wipe Out

Exact Audio Copy V1.0 beta 6 from 9. April 2015

EAC extraction logfile from 10. June 2015, 8:17

Various / 25 Hits of the 60's Volume 3 of 4

Used drive : ASUS SDRW-08D1S-U Adapter: 1 ID: 1

Read mode : Secure
Utilize accurate stream : Yes
Defeat audio cache : Yes
Make use of C2 pointers : No

Read offset correction : 667
Overread into Lead-In and Lead-Out : No
Fill up missing offset samples with silence : Yes
Delete leading and trailing silent blocks : No
Null samples used in CRC calculations : Yes
Used interface : Native Win32 interface for Win NT & 2000

Used output format : User Defined Encoder
Selected bitrate : 128 kBit/s
Quality : High
Add ID3 tag : No
Command line compressor : C:\Program Files (x86)\Exact Audio Copy\Flac\flac.exe
Additional command line options : -V -8 -T "Date=%year%" -T "Genre=%genre%" %source%


TOC of the extracted CD

Track | Start | Length | Start sector | End sector
––––––––––––––––––––––––––––-
1 | 0:00.00 | 2:47.15 | 0 | 12539
2 | 2:47.15 | 3:32.25 | 12540 | 28464
3 | 6:19.40 | 3:01.42 | 28465 | 42081
4 | 9:21.07 | 2:39.25 | 42082 | 54031
5 | 12:00.32 | 2:09.25 | 54032 | 63731
6 | 14:09.57 | 4:04.60 | 63732 | 82091
7 | 18:14.42 | 8:53.28 | 82092 | 122094
8 | 27:07.70 | 3:01.10 | 122095 | 135679
9 | 30:09.05 | 2:01.15 | 135680 | 144769
10 | 32:10.20 | 2:50.17 | 144770 | 157536
11 | 35:00.37 | 3:05.63 | 157537 | 171474
12 | 38:06.25 | 2:41.47 | 171475 | 183596
13 | 40:47.72 | 1:47.33 | 183597 | 191654
14 | 42:35.30 | 2:48.42 | 191655 | 204296
15 | 45:23.72 | 2:43.33 | 204297 | 216554
16 | 48:07.30 | 2:05.32 | 216555 | 225961
17 | 50:12.62 | 3:52.18 | 225962 | 243379
18 | 54:05.05 | 2:45.25 | 243380 | 255779
19 | 56:50.30 | 2:34.22 | 255780 | 267351
20 | 59:24.52 | 2:06.40 | 267352 | 276841
21 | 61:31.17 | 2:24.73 | 276842 | 287714
22 | 63:56.15 | 2:18.22 | 287715 | 298086
23 | 66:14.37 | 2:11.60 | 298087 | 307971
24 | 68:26.22 | 2:12.13 | 307972 | 317884
25 | 70:38.35 | 2:43.37 | 317885 | 330146


Range status and errors

Selected range

Filename C:\Users\Олег\Desktop\100 Hits\vol 3\Various - 25 Hits of the 60's Volume 3 of 4.wav

Peak level 100.0 %
Extraction speed 3.3 X
Range quality 100.0 %
Test CRC 07C9DC75
Copy CRC 07C9DC75
Copy OK

No errors occurred


AccurateRip summary

Track 1 not present in database
Track 2 not present in database
Track 3 not present in database
Track 4 not present in database
Track 5 not present in database
Track 6 not present in database
Track 7 not present in database
Track 8 not present in database
Track 9 not present in database
Track 10 not present in database
Track 11 not present in database
Track 12 not present in database
Track 13 not present in database
Track 14 not present in database
Track 15 not present in database
Track 16 not present in database
Track 17 not present in database
Track 18 not present in database
Track 19 not present in database
Track 20 not present in database
Track 21 not present in database
Track 22 not present in database
Track 23 not present in database
Track 24 not present in database
Track 25 not present in database

None of the tracks are present in the AccurateRip database

End of status report

–– CUETools DB Plugin V2.1.6

[CTDB TOCID: IHvWiJjEHgeJcecZDqH4T4YXiak-] disk not present in database
Submit result: IHvWiJjEHgeJcecZDqH4T4YXiak- has been uploaded


==== Log checksum DFE51CCEC86268C2D1F9403FBE3828EAE6B3012672F0C0A2B756EFA2A7F7790F ====


VA - 25 Hits of the 60's Volume 1-4 (1994)

Tracklist CD4 - 25 Hits of the 60's Volume 4:

[01] Chubby Checker – Let,s Twist Again
[02] Chris Farlowe – Out Of Time
[03] Billy Stewart – Summertime
[04] The Crystals – Da Doo Ron Ron
[05] Georgie Fame & The Blue Flames – The Ballad Of Bonnie And Clyde
[06] Chris Andrews – Yesterday Man
[07] Fats Domino – Jambalaya (On The Bayou)
[08] Amen Corner – If Paradise Is Half As Nice
[09] Percy Sledge – My Special Player
[10] Gene Pitney – Only Love Can Break A Heart
[11] Ray Peterson – Tell Laura I Love Her
[12] Mary Wells – My Guy
[13] Billy Joe Royal – Hush
[14] The Beach Boys – Surfin, Safari
[15] Tommy Roe – Dizzy
[16] The Cascades – Rhythm Of The Rain
[17] Dale & Grace – I’m Leaving It Up To You
[18] The Kingsmen – Louie Louie
[19] Sam The Sham & The Pharaos – Little Red Riding Hood
[20] Johnny Thunder – Loop De Loop
[21] The Marcels – Blue Moon
[22] Lesley Gore – It’s My Party
[23] The Shirelles – Dedicated To The One I Love
[24] B.J. Thomas – Raindrops Keep Falling On My Head
[25] The Ventures – Walk, Don’t Run

Exact Audio Copy V1.0 beta 6 from 9. April 2015

EAC extraction logfile from 10. June 2015, 8:57

Various / 25 Hits of the 60's Volume 4 of 4

Used drive : ASUS SDRW-08D1S-U Adapter: 1 ID: 1

Read mode : Secure
Utilize accurate stream : Yes
Defeat audio cache : Yes
Make use of C2 pointers : No

Read offset correction : 667
Overread into Lead-In and Lead-Out : No
Fill up missing offset samples with silence : Yes
Delete leading and trailing silent blocks : No
Null samples used in CRC calculations : Yes
Used interface : Native Win32 interface for Win NT & 2000

Used output format : User Defined Encoder
Selected bitrate : 128 kBit/s
Quality : High
Add ID3 tag : No
Command line compressor : C:\Program Files (x86)\Exact Audio Copy\Flac\flac.exe
Additional command line options : -V -8 -T "Date=%year%" -T "Genre=%genre%" %source%


TOC of the extracted CD

Track | Start | Length | Start sector | End sector
––––––––––––––––––––––––––––-
1 | 0:00.00 | 2:21.72 | 0 | 10646
2 | 2:21.72 | 3:15.70 | 10647 | 25341
3 | 5:37.67 | 2:43.38 | 25342 | 37604
4 | 8:21.30 | 2:22.30 | 37605 | 48284
5 | 10:43.60 | 3:19.15 | 48285 | 63224
6 | 14:03.00 | 2:34.52 | 63225 | 74826
7 | 16:37.52 | 2:54.50 | 74827 | 87926
8 | 19:32.27 | 2:50.50 | 87927 | 100726
9 | 22:23.02 | 3:01.33 | 100727 | 114334
10 | 25:24.35 | 2:51.19 | 114335 | 127178
11 | 28:15.54 | 2:53.68 | 127179 | 140221
12 | 31:09.47 | 2:44.40 | 140222 | 152561
13 | 33:54.12 | 2:24.63 | 152562 | 163424
14 | 36:19.00 | 2:00.40 | 163425 | 172464
15 | 38:19.40 | 2:54.27 | 172465 | 185541
16 | 41:13.67 | 2:30.48 | 185542 | 196839
17 | 43:44.40 | 2:16.17 | 196840 | 207056
18 | 46:00.57 | 2:46.03 | 207057 | 219509
19 | 48:46.60 | 2:45.45 | 219510 | 231929
20 | 51:32.30 | 2:20.10 | 231930 | 242439
21 | 53:52.40 | 2:19.07 | 242440 | 252871
22 | 56:11.47 | 2:16.25 | 252872 | 263096
23 | 58:27.72 | 2:01.60 | 263097 | 272231
24 | 60:29.57 | 2:54.50 | 272232 | 285331
25 | 63:24.32 | 2:57.60 | 285332 | 298666


Range status and errors

Selected range

Filename C:\Users\Олег\Desktop\100 Hits\vol 4\Various - 25 Hits of the 60's Volume 4 of 4.wav

Peak level 100.0 %
Extraction speed 4.1 X
Range quality 100.0 %
Test CRC E4919329
Copy CRC E4919329
Copy OK

No errors occurred


AccurateRip summary

Track 1 not present in database
Track 2 not present in database
Track 3 not present in database
Track 4 not present in database
Track 5 not present in database
Track 6 not present in database
Track 7 not present in database
Track 8 not present in database
Track 9 not present in database
Track 10 not present in database
Track 11 not present in database
Track 12 not present in database
Track 13 not present in database
Track 14 not present in database
Track 15 not present in database
Track 16 not present in database
Track 17 not present in database
Track 18 not present in database
Track 19 not present in database
Track 20 not present in database
Track 21 not present in database
Track 22 not present in database
Track 23 not present in database
Track 24 not present in database
Track 25 not present in database

None of the tracks are present in the AccurateRip database

End of status report

–– CUETools DB Plugin V2.1.6

[CTDB TOCID: kB6tY3z30hOnAuL1jjaexnlL5AQ-] disk not present in database
Submit result: kB6tY3z30hOnAuL1jjaexnlL5AQ- has been uploaded


==== Log checksum 1F391564DEB62D8BA8D413312399F90E10DFBFB8E6B0771D761B13AB45D9EDE2 ====


All thanks go to Alex Fal

Download VA - 25 Hits of the 60's Volume 1-4 (1994):