Subcategories

38 Special - Live At Sturgis (1999) [Japanese Ed. 2000]

Posted By: Andi_Deris
38 Special - Live At Sturgis (1999) [Japanese Ed. 2000]

38 Special - Live At Sturgis (1999) [Japanese Ed. 2000]
EAC Rip | FLAC: Image+Cue+Log | MP3 CBR 320 kbps | Scans
477 Mb | 156 Mb | 100 Mb | Time: 01:06:52
Nippon Crown Co., Ltd. | CRCL-4743
Rock, Southern Rock

Live at Sturgis is a live album by the southern rock band 38 Special, released in 1999. It was recorded at the Buffalo Chip Campground in Sturgis, South Dakota, on August 12, 1999, during the Sturgis Motorcycle Rally except for the last track, which is a new studio recording from the same year.

Southern rock has always been popular among hardcore bikers, so it makes perfect sense that .38 Special – the best Southern rock band of the early '80s – provided the soundtrack to the 1999 biker festival in Sturgis, South Dakota. That concert provided the basis for Live at Sturgis, their first release for CMC International. Like many latter-day live albums from veteran rock acts, Live at Sturgis is really only for the diehards who have followed the band throughout the years, even if it's essentially a greatest-hits set list with a couple of new songs from their reunion album, Resolution, tossed in for good measure. After all, less dedicated listeners have little desire to hear live versions of these songs, performed nearly 20 years after they hit the charts, especially since many of the hits have singalongs with the crowd. Nevertheless, it has to be said that .38 Special doesn't sound bad on Live at Sturgis – the vocals may not be as passionate and the band might not rock as they did in their glory days, but the album is certainly listenable and, if you're a fan, entertaining. But it's not really something that even hardcore fans would listen to all that often, even with the addition of a new studio track, the poppy "Just One Girl," that's as good as anything on Resolution.

38 Special - Live At Sturgis (1999) [Japanese Ed. 2000]




Track Listing

01. Rockin' Into The Night (04:53)
02. Twentieth Century Fox (04:02)
03. Back Where You Belong (04:31)
04. Wild-Eyed Southern Boys (05:38)
05. Fade To Blue (04:41)
06. If I'd Been The One (04:09)
07. Rebel To Rebel (07:01)
08. Take 'Em Out (04:18)
09. Deja Voodoo (06:30)
10. Fantasy Girl (04:18)
11. Caught Up In You (06:23)
12. Hold On Loosely (05:55)
13. Just One Girl (new studio track) (04:33)

Produced by Don Barnes, Danny Chauncey, Ben Fowler and 38 Special

The Band

• Don Barnes - guitar, vocals
• Bobby Capps - keyboards, vocals
• Danny Chauncey - guitar, vocals
• Larry Junstrom - bass guitar
• Gary Moffatt - drums
• Donnie Van Zant - guitar, vocals

Exact Audio Copy V1.0 beta 3 from 29. August 2011

EAC extraction logfile from 26. February 2017, 19:18

38 Special / Live At Sturgis

Used drive : SlimtypeDVD A DS8A5SH Adapter: 0 ID: 0

Read mode : Secure
Utilize accurate stream : Yes
Defeat audio cache : Yes
Make use of C2 pointers : No

Read offset correction : 6
Overread into Lead-In and Lead-Out : No
Fill up missing offset samples with silence : Yes
Delete leading and trailing silent blocks : No
Null samples used in CRC calculations : Yes
Used interface : Installed external ASPI interface

Used output format : User Defined Encoder
Selected bitrate : 320 kBit/s
Quality : High
Add ID3 tag : No
Command line compressor : C:\Program Files (x86)\Exact Audio Copy\Flac\flac.exe
Additional command line options : -V -8 -T "Date=%year%" -T "Genre=%genre%" %source%


TOC of the extracted CD

Track | Start | Length | Start sector | End sector
––––––––––––––––––––––––––––-
1 | 0:00.00 | 4:53.05 | 0 | 21979
2 | 4:53.05 | 4:01.52 | 21980 | 40106
3 | 8:54.57 | 4:30.70 | 40107 | 60426
4 | 13:25.52 | 5:38.23 | 60427 | 85799
5 | 19:04.00 | 4:41.20 | 85800 | 106894
6 | 23:45.20 | 4:08.37 | 106895 | 125531
7 | 27:53.57 | 7:01.05 | 125532 | 157111
8 | 34:54.62 | 4:17.50 | 157112 | 176436
9 | 39:12.37 | 6:30.23 | 176437 | 205709
10 | 45:42.60 | 4:17.42 | 205710 | 225026
11 | 50:00.27 | 6:22.60 | 225027 | 253736
12 | 56:23.12 | 5:54.60 | 253737 | 280346
13 | 62:17.72 | 4:33.25 | 280347 | 300846


Range status and errors

Selected range

Filename D:\My Music\38 Special - 1999 Live At Sturgis\38 Special - Live At Sturgis.wav

Peak level 100.0 %
Extraction speed 2.1 X
Range quality 100.0 %
Test CRC 88471CD6
Copy CRC 88471CD6
Copy OK

No errors occurred


AccurateRip summary

Track 1 accurately ripped (confidence 1) [C20A60C1] (AR v1)
Track 2 accurately ripped (confidence 1) [9B02FAD7] (AR v1)
Track 3 accurately ripped (confidence 1) [076B0817] (AR v1)
Track 4 accurately ripped (confidence 1) [D3BBF8F2] (AR v1)
Track 5 accurately ripped (confidence 1) [3F1C1248] (AR v1)
Track 6 accurately ripped (confidence 1) [7001A985] (AR v1)
Track 7 accurately ripped (confidence 1) [E3C3C1DA] (AR v1)
Track 8 accurately ripped (confidence 1) [24F108BA] (AR v1)
Track 9 accurately ripped (confidence 1) [82F6E1E1] (AR v1)
Track 10 accurately ripped (confidence 1) [2113F47C] (AR v1)
Track 11 accurately ripped (confidence 1) [7A61DE9C] (AR v1)
Track 12 accurately ripped (confidence 1) [410DD906] (AR v1)
Track 13 accurately ripped (confidence 1) [FF8A7876] (AR v1)

All tracks accurately ripped

End of status report

==== Log checksum 8CD510AA6DC5CEE6C1270ED361A00CC25753D2D7C9261390CCB2229CF6C28E60 ====


Many thanks to the original uploader: kolushew

SEE also:
38 Special 1977 38 Special [Japanese LTD mini-Vinyl CD 2014]
38 Special 1978 Special Delivery [Japanese LTD mini-Vinyl CD 2014]
38 Special 1982 Special Forces [Japanese Ed. 1994]
38 Special 1997 Resolution [Japanese Ed.]

Lynyrd Skynyrd 1987 Legend
Lynyrd Skynyrd 1996 Freebird: The Movie (Selections From The Original Soundtrack)
Lynyrd Skynyrd 1991 The Definitive Lynyrd Skynyrd Collection [3CD Box Set]
Lynyrd Skynyrd 2007 Sounds Of The South/MCA Years 1973-1988 [Japanese LTD mini-LP CD, Promo Box Set]



Password: pass