Subcategories

Eden's Crush - Popstars (2001) {London/Sire}

Posted By: TestTickles
Eden's Crush - Popstars (2001) {London/Sire}

Eden's Crush - Popstars (2001) {London/Sire}
EAC Rip | FLAC with CUE and log | scans | 522 mb
MP3 CBR 320kbps | RAR | 149 mb
Genre: modern pop, R&B, soul

Popstars is the first and only album by Eden's Crush, which originated as a television show in early 2001 which looked for singers to form a music group after auditions. The end result was finding Nicole Scherzinger, Rosanna Tavarez, Maile Misajon, Ivette Sosa and Ana Maria Lombo. The group had two minor hits before they called it a day, which lead Scherzinger to audition to become a member of the Pussycat Dolls.

Eden's Crush - Popstars (2001) {London/Sire}

01. What's Good 4 The Goose
02. Let Me Know
03. Get Over Yourself
04. Anywhere But Here
05. Love This Way
06. No Drama
07. I Wanna Be Free
08. Glamorous Life
09. 1,000 Words (Mil Palabras)
10. Two Way
11. It Wasn't Me
12. You Know I Can
13. Promise Me (Hidden Track)

Nicole Scherzinger
Rosanna Tavarez
Maile Misajon
Ivette Sosa
Ana Maria Lombo


Track 1 produced by ChakDaddy, SoL Survivor, E. Dawk & Tommie "Bishop" McLaughlin
Tracks 2, 7, 9 & 11 produced by Klaus Derendorf & Jeeve, co-produced by Leticia Ascencio
Tracks 3, 5 & 8 produced, arranged & engineered by Matthew Gerrard
Track 4 produced by Riprock 'n' Alex G
Tracks 5 & 13 produced by David Foster
Track 6 produced by ChakDaddy & E. Dawk
Track 10 produced by Dow Brain & Brad Young, additional production by Kara Dioguardi
Track 12 produced by Riprock 'n' Alex G & Chris Farren
Track 13 co-produced by Simon Franglen

Eden's Crush - Popstars (2001) {London/Sire}


Exact Audio Copy V1.0 beta 6 from 9. April 2015

EAC extraction logfile from 31. December 2017, 12:15

Eden's Crush / Popstars

Used drive : TSSTcorpDVD+-RW TS-L633C Adapter: 1 ID: 0

Read mode : Secure
Utilize accurate stream : Yes
Defeat audio cache : Yes
Make use of C2 pointers : No

Read offset correction : 6
Overread into Lead-In and Lead-Out : No
Fill up missing offset samples with silence : Yes
Delete leading and trailing silent blocks : No
Null samples used in CRC calculations : Yes
Used interface : Native Win32 interface for Win NT & 2000
Gap handling : Appended to previous track

Used output format : Internal WAV Routines
Sample format : 44.100 Hz; 16 Bit; Stereo


TOC of the extracted CD

Track | Start | Length | Start sector | End sector
––––––––––––––––––––––––––––-
1 | 0:00.00 | 3:33.65 | 0 | 16039
2 | 3:33.65 | 3:52.50 | 16040 | 33489
3 | 7:26.40 | 3:18.05 | 33490 | 48344
4 | 10:44.45 | 3:31.57 | 48345 | 64226
5 | 14:16.27 | 3:28.65 | 64227 | 79891
6 | 17:45.17 | 3:52.30 | 79892 | 97321
7 | 21:37.47 | 3:41.10 | 97322 | 113906
8 | 25:18.57 | 3:03.18 | 113907 | 127649
9 | 28:22.00 | 4:18.05 | 127650 | 147004
10 | 32:40.05 | 3:31.60 | 147005 | 162889
11 | 36:11.65 | 3:33.05 | 162890 | 178869
12 | 39:44.70 | 3:33.27 | 178870 | 194871
13 | 43:18.22 | 4:43.50 | 194872 | 216146
14 | 50:33.72 | 19:58.19 | 227547 | 317415


Track 1

Filename C:\My Documents\My FLAC\Eden's Crush - Popstars (2001) [FLAC] {London-Sire}\01 - What's Good 4 The Goose.wav

Pre-gap length 0:00:02.00

Peak level 97.6 %
Extraction speed 2.6 X
Track quality 100.0 %
Test CRC FB3E5C6D
Copy CRC FB3E5C6D
Accurately ripped (confidence 9) [520C1A30] (AR v2)
Copy OK

Track 2

Filename C:\My Documents\My FLAC\Eden's Crush - Popstars (2001) [FLAC] {London-Sire}\02 - Let Me Know.wav

Peak level 96.5 %
Extraction speed 2.9 X
Track quality 100.0 %
Test CRC 3161054C
Copy CRC 3161054C
Accurately ripped (confidence 9) [72E5A029] (AR v2)
Copy OK

Track 3

Filename C:\My Documents\My FLAC\Eden's Crush - Popstars (2001) [FLAC] {London-Sire}\03 - Get Over Yourself.wav

Pre-gap length 0:00:01.50

Peak level 99.8 %
Extraction speed 3.0 X
Track quality 100.0 %
Test CRC 674267D4
Copy CRC 674267D4
Accurately ripped (confidence 9) [C5048B12] (AR v2)
Copy OK

Track 4

Filename C:\My Documents\My FLAC\Eden's Crush - Popstars (2001) [FLAC] {London-Sire}\04 - Anywhere But Here.wav

Peak level 96.5 %
Extraction speed 3.2 X
Track quality 100.0 %
Test CRC 39E34E7D
Copy CRC 39E34E7D
Accurately ripped (confidence 8) [D10EA24F] (AR v2)
Copy OK

Track 5

Filename C:\My Documents\My FLAC\Eden's Crush - Popstars (2001) [FLAC] {London-Sire}\05 - Love This Way.wav

Peak level 96.5 %
Extraction speed 3.4 X
Track quality 100.0 %
Test CRC 7F3EF02A
Copy CRC 7F3EF02A
Accurately ripped (confidence 9) [4609B5AF] (AR v2)
Copy OK

Track 6

Filename C:\My Documents\My FLAC\Eden's Crush - Popstars (2001) [FLAC] {London-Sire}\06 - No Drama.wav

Pre-gap length 0:00:01.22

Peak level 96.5 %
Extraction speed 2.9 X
Track quality 99.9 %
Test CRC C978A4F9
Copy CRC C978A4F9
Accurately ripped (confidence 9) [99B6AFAC] (AR v2)
Copy OK

Track 7

Filename C:\My Documents\My FLAC\Eden's Crush - Popstars (2001) [FLAC] {London-Sire}\07 - I Wanna Be Free.wav

Peak level 96.5 %
Extraction speed 3.6 X
Track quality 100.0 %
Test CRC 2B0EFFE7
Copy CRC 2B0EFFE7
Accurately ripped (confidence 9) [CB17E348] (AR v2)
Copy OK

Track 8

Filename C:\My Documents\My FLAC\Eden's Crush - Popstars (2001) [FLAC] {London-Sire}\08 - Glamorous Life.wav

Peak level 94.3 %
Extraction speed 2.9 X
Track quality 99.9 %
Test CRC C823CD75
Copy CRC C823CD75
Accurately ripped (confidence 9) [5F78E4C1] (AR v2)
Copy OK

Track 9

Filename C:\My Documents\My FLAC\Eden's Crush - Popstars (2001) [FLAC] {London-Sire}\09 - 1,000 Words (Mil Palabras).wav

Peak level 96.5 %
Extraction speed 4.0 X
Track quality 100.0 %
Test CRC 32A16C2A
Copy CRC 32A16C2A
Accurately ripped (confidence 9) [DF311107] (AR v2)
Copy OK

Track 10

Filename C:\My Documents\My FLAC\Eden's Crush - Popstars (2001) [FLAC] {London-Sire}\10 - Two Way.wav

Peak level 96.5 %
Extraction speed 3.3 X
Track quality 99.9 %
Test CRC 7CA3EC42
Copy CRC 7CA3EC42
Accurately ripped (confidence 8) [C5901F29] (AR v2)
Copy OK

Track 11

Filename C:\My Documents\My FLAC\Eden's Crush - Popstars (2001) [FLAC] {London-Sire}\11 - It Wasn't Me.wav

Peak level 96.5 %
Extraction speed 4.1 X
Track quality 100.0 %
Test CRC 9B75B5AF
Copy CRC 9B75B5AF
Accurately ripped (confidence 9) [F2D94122] (AR v2)
Copy OK

Track 12

Filename C:\My Documents\My FLAC\Eden's Crush - Popstars (2001) [FLAC] {London-Sire}\12 - You Know I Can.wav

Peak level 96.5 %
Extraction speed 4.2 X
Track quality 100.0 %
Test CRC 14514D42
Copy CRC 14514D42
Accurately ripped (confidence 9) [2D0166D5] (AR v2)
Copy OK

Track 13

Filename C:\My Documents\My FLAC\Eden's Crush - Popstars (2001) [FLAC] {London-Sire}\13 - Promise Me.wav

Pre-gap length 0:00:01.10

Peak level 95.4 %
Extraction speed 4.6 X
Track quality 100.0 %
Test CRC 7526758A
Copy CRC 7526758A
Accurately ripped (confidence 10) [AD04674B] (AR v2)
Copy OK


All tracks accurately ripped

No errors occurred

End of status report

–– CUETools DB Plugin V2.1.6

[CTDB TOCID: aGb41v73w5nJyAh.LWTzClj8dak-] found
Submit result: aGb41v73w5nJyAh.LWTzClj8dak- has been confirmed
Track | CTDB Status
1 | (18/18) Accurately ripped
2 | (18/18) Accurately ripped
3 | (18/18) Accurately ripped
4 | (18/18) Accurately ripped
5 | (18/18) Accurately ripped
6 | (18/18) Accurately ripped
7 | (18/18) Accurately ripped
8 | (18/18) Accurately ripped
9 | (18/18) Accurately ripped
10 | (18/18) Accurately ripped
11 | (18/18) Accurately ripped
12 | (18/18) Accurately ripped
13 | (18/18) Accurately ripped


==== Log checksum F3E09A34BD68E4999EB03C5D6E4CD6AC1760398006CCDFBD9D55A9D50BE5E363 ====


Eden's Crush - Popstars (2001) {London/Sire}