Subcategories

Eliane Elias, Bob Brookmeyer & The Danish Radio Jazz Orchestra - Impulsive! (2000) {Stunt} **[RE-UP]**

Posted By: TestTickles
Eliane Elias, Bob Brookmeyer & The Danish Radio Jazz Orchestra - Impulsive! (2000) {Stunt} **[RE-UP]**

Eliane Elias, Bob Brookmeyer & The Danish Radio Jazz Orchestra - Impulsive! (2000) {Stunt}
EAC Rip | FLAC with CUE and log | scans | 328 mb
MP3 CBR 320kbps | RAR | 156 mb
Genre: jazz

Impulsive! is the 2000 CD by Eliane Elias, Bob Brookmeyer & The Danish Radio Jazz Orchestra. It was recorded during sessions in 1997 before being released three years later. Unlike other albums, this one is entirely instrumental. This was released by the Stunt label
The curious blend of pianist Eliane Elias with conductor and arranger Bob Brookmeyer leading the Danish Radio Jazz Orchestra makes for a surprising mix. Brookmeyer, long established as one of the top jazz writers and a phenomenal valve trombonist to boot, was not familiar with the recordings of the Brazilian keyboardist, but he was clearly up to the challenge of scoring her music. Brookmeyer gives "Just Kiddin'" a big and bold post-bop treatment, with an underlying funky rhythm and a bit of electronics thrown in for fun. Elias and Brookmeyer share the solo spotlight in the breezy setting of her ballad "So in Love." Far more low-key is "Moments," with sparse piano lines backed by Brookmeyer's rich scoring for the brass and a fine solo by flugelhornist Henrik Bolberg Pedersen. The exotic, high-energy setting of "The Time Is Now" is a more modern bossa nova, showcasing Elias and Brookmeyer, along with bassist Thomas Ovesen and drummer Jonas Johansen. "One Side of You" is a haunting ballad made more so by Brookmeyer's brilliant arrangement. This session may throw a bit of a curve to longtime fans of either Eliane Elias or Bob Brookmeyer, but this successful CD is very much an ear opener.

Eliane Elias, Bob Brookmeyer & The Danish Radio Jazz Orchestra - Impulsive! (2000) {Stunt} **[RE-UP]**

1. Just Kiddin'
2. So In Love
3. Moments
4. The Time Is Now
5. One Side Of You
6. Impulsive!

Bob Brookmeyer-conductor, valve trombone

Nicolai Schultz-soprano & alto saxophones, flute, alto flute
Michael Hove-soprano & alto saxophones, flute, clarinet
Uffe Markussen-soprano & tenor saxophones, clarinet, bass clarinet
Tomas Franck-soprano & tenor saxophones, clarinet
Benny Rosenfeld-trumpet, flugelhorn
Jesper Riis-trumpet, flugelhorn
Palle Bolvig-trumpet, flugelhorn
Vincent Nilsson-trombone, baritone horn
Steen Hansen-trombone, baritone horn
Kjeld Ipsen-trombone
Axel Windfeld-bass trombone, tuba
Klaus Lohrer-bass trombone

Eliane Elias-piano
Nikolaj Bentzon-keyboards, synthesizer
Anders "Chico" Lindvall-guitar
Thomas Ovesen-acoustic & electric basses
Jonas Johansen-drums
Ethan Weisgard-percussion

EAC extraction logfile from 26. November 2006, 15:45 for CD
Eliane Elias, Bob Brookmeyer & The Danish Radio Jazz Orchestra / Impulsive!

Used drive : LITE-ON DVDRW SOHW-1633S Adapter: 0 ID: 0
Read mode : Secure with NO C2, accurate stream, disable cache
Read offset correction : 12
Overread into Lead-In and Lead-Out : No

Used output format : Internal WAV Routines
44.100 Hz; 16 Bit; Stereo

Other options :
Fill up missing offset samples with silence : Yes
Delete leading and trailing silent blocks : No
Installed external ASPI interface


Track 1
Filename D:\FLAC\Eliane Elias, Bob Brookmeyer & The Danish Radio Jazz Orchestra - Impulsive! (2000) [FLAC]\01 - Just Kiddin'.wav

Pre-gap length 0:00:02.00

Peak level 100.0 %
Track quality 100.0 %
Test CRC F2BC2CCA
Copy CRC F2BC2CCA
Copy OK

Track 2
Filename D:\FLAC\Eliane Elias, Bob Brookmeyer & The Danish Radio Jazz Orchestra - Impulsive! (2000) [FLAC]\02 - So In Love.wav

Pre-gap length 0:00:03.16

Peak level 52.0 %
Track quality 99.9 %
Test CRC 9C7D1A64
Copy CRC 9C7D1A64
Copy OK

Track 3
Filename D:\FLAC\Eliane Elias, Bob Brookmeyer & The Danish Radio Jazz Orchestra - Impulsive! (2000) [FLAC]\03 - Moments.wav

Pre-gap length 0:00:02.62

Peak level 60.5 %
Track quality 100.0 %
Test CRC 560C0501
Copy CRC 560C0501
Copy OK

Track 4
Filename D:\FLAC\Eliane Elias, Bob Brookmeyer & The Danish Radio Jazz Orchestra - Impulsive! (2000) [FLAC]\04 - The Time Is Now.wav

Pre-gap length 0:00:03.24

Peak level 98.5 %
Track quality 100.0 %
Test CRC ECA08B0A
Copy CRC ECA08B0A
Copy OK

Track 5
Filename D:\FLAC\Eliane Elias, Bob Brookmeyer & The Danish Radio Jazz Orchestra - Impulsive! (2000) [FLAC]\05 - One Side Of You.wav

Pre-gap length 0:00:03.02

Peak level 40.2 %
Track quality 100.0 %
Test CRC C68BFAAB
Copy CRC C68BFAAB
Copy OK

Track 6
Filename D:\FLAC\Eliane Elias, Bob Brookmeyer & The Danish Radio Jazz Orchestra - Impulsive! (2000) [FLAC]\06 - Impulsive!.wav

Pre-gap length 0:00:03.04

Peak level 100.0 %
Track quality 100.0 %
Test CRC 8E7721AB
Copy CRC 8E7721AB
Copy OK

No errors occured


End of status report


Eliane Elias, Bob Brookmeyer & The Danish Radio Jazz Orchestra - Impulsive! (2000) {Stunt} **[RE-UP]**