Subcategories

Erich Kunzel/Cincinnati Pops Orchestra featuring King'Singers - Music Of The Beatles (2001) {Telarc} **[RE-UP]**

Posted By: TestTickles
Erich Kunzel/Cincinnati Pops Orchestra featuring King'Singers - Music Of The Beatles (2001) {Telarc} **[RE-UP]**

Erich Kunzel/Cincinnati Pops Orchestra featuring King'Singers - Music Of The Beatles (2001) {Telarc}
EAC Rip | FLAC with CUE and log | scans | 305 mb
MP3 CBR 320kbps | RAR | 151 mb
Genre: classical, classical pop

Music Of The Beatles is a 2001 CD by the Cincinnati Pops Orchestra, conducted by Erich Kunzel. It consists of classical renditions of Beatles songs, plain and simple, but quite nice.

Erich Kunzel/Cincinnati Pops Orchestra featuring King'Singers - Music Of The Beatles (2001) {Telarc} **[RE-UP]**

01. Eleanor Rigby (Orchestral Version)
02. All You Need Is Love
03. When I'm Sixty-Four
04. Michelle
05. Octopus's Garden
06. Across the Universe
07. Ob-La-Di, Ob-La-Da
08. Penny Lane
09. Sgt. Pepper's Lonely Hearts Club Band
10. Eleanor Rigby
11. Because
12. Yesterday
13. Here, There, And Everywhere
14. The Long And Winding Road
15. Hey Jude
16. Let It Be
–-
Produced by Robert Woods
Recording and mix engineer: Michael Bishop
Assistant engineers: Robert Friedrich, James Yates, Andrew Mendelson, David Ripp
Production assistant: John Morris Russell
Editors: Thomas C. Moore, Andrew Mendelson
Production supervisor: Elaine Martone

Recorded in Music Hall, Cincinatti, Ohio, September 10, and December 7, 9 and 10, 2000

EAC extraction logfile from 22. November 2006, 5:25 for CD
Erich Kunzel, Cincinnati Pops Orchestra / Music Of The Beatles

Used drive : LITE-ON DVDRW SOHW-1633S Adapter: 0 ID: 0
Read mode : Secure with NO C2, accurate stream, disable cache
Read offset correction : 12
Overread into Lead-In and Lead-Out : No

Used output format : Internal WAV Routines
44.100 Hz; 16 Bit; Stereo

Other options :
Fill up missing offset samples with silence : Yes
Delete leading and trailing silent blocks : No
Installed external ASPI interface


Track 1
Filename D:\FLAC\Erich Kunzel, Cincinnati Pops Orchestra - Music Of The Beatles (2001) [FLAC]\01 - Eleanor Rigby (Orchestral Version).wav

Pre-gap length 0:00:02.00

Peak level 100.0 %
Track quality 100.0 %
Test CRC 0AF8B172
Copy CRC 0AF8B172
Copy OK

Track 2
Filename D:\FLAC\Erich Kunzel, Cincinnati Pops Orchestra - Music Of The Beatles (2001) [FLAC]\02 - All You Need Is Love.wav

Pre-gap length 0:00:05.66

Peak level 80.8 %
Track quality 100.0 %
Test CRC 54609D0C
Copy CRC 54609D0C
Copy OK

Track 3
Filename D:\FLAC\Erich Kunzel, Cincinnati Pops Orchestra - Music Of The Beatles (2001) [FLAC]\03 - When I'm Sixty-Four.wav

Pre-gap length 0:00:02.70

Peak level 69.8 %
Track quality 100.0 %
Test CRC 1718B38D
Copy CRC 1718B38D
Copy OK

Track 4
Filename D:\FLAC\Erich Kunzel, Cincinnati Pops Orchestra - Music Of The Beatles (2001) [FLAC]\04 - Michelle.wav

Pre-gap length 0:00:06.84

Peak level 91.8 %
Track quality 100.0 %
Test CRC FB50EE42
Copy CRC FB50EE42
Copy OK

Track 5
Filename D:\FLAC\Erich Kunzel, Cincinnati Pops Orchestra - Music Of The Beatles (2001) [FLAC]\05 - Octopus's Garden.wav

Pre-gap length 0:00:05.84

Peak level 71.9 %
Track quality 100.0 %
Test CRC 74C3610C
Copy CRC 74C3610C
Copy OK

Track 6
Filename D:\FLAC\Erich Kunzel, Cincinnati Pops Orchestra - Music Of The Beatles (2001) [FLAC]\06 - Across the Universe.wav

Pre-gap length 0:00:05.00

Peak level 49.0 %
Track quality 100.0 %
Test CRC 04ED13DA
Copy CRC 04ED13DA
Copy OK

Track 7
Filename D:\FLAC\Erich Kunzel, Cincinnati Pops Orchestra - Music Of The Beatles (2001) [FLAC]\07 - Ob-la-di, Ob-la-da.wav

Pre-gap length 0:00:06.60

Peak level 88.5 %
Track quality 100.0 %
Test CRC 88CC367A
Copy CRC 88CC367A
Copy OK

Track 8
Filename D:\FLAC\Erich Kunzel, Cincinnati Pops Orchestra - Music Of The Beatles (2001) [FLAC]\08 - Penny Lane.wav

Pre-gap length 0:00:06.66

Peak level 95.4 %
Track quality 99.9 %
Test CRC D45FF12B
Copy CRC D45FF12B
Copy OK

Track 9
Filename D:\FLAC\Erich Kunzel, Cincinnati Pops Orchestra - Music Of The Beatles (2001) [FLAC]\09 - Sgt. Pepper's Lonely Hearts Club Band.wav

Pre-gap length 0:00:05.37

Peak level 100.0 %
Track quality 100.0 %
Test CRC CDFD348E
Copy CRC CDFD348E
Copy OK

Track 10
Filename D:\FLAC\Erich Kunzel, Cincinnati Pops Orchestra - Music Of The Beatles (2001) [FLAC]\10 - Eleanor Rigby.wav

Pre-gap length 0:00:05.57

Peak level 88.4 %
Track quality 100.0 %
Test CRC 06FDBD6D
Copy CRC 06FDBD6D
Copy OK

Track 11
Filename D:\FLAC\Erich Kunzel, Cincinnati Pops Orchestra - Music Of The Beatles (2001) [FLAC]\11 - Because.wav

Pre-gap length 0:00:08.37

Peak level 48.3 %
Track quality 100.0 %
Test CRC F88A7D6C
Copy CRC F88A7D6C
Copy OK

Track 12
Filename D:\FLAC\Erich Kunzel, Cincinnati Pops Orchestra - Music Of The Beatles (2001) [FLAC]\12 - Yesterday.wav

Pre-gap length 0:00:07.33

Peak level 92.1 %
Track quality 100.0 %
Test CRC B84DA6C9
Copy CRC B84DA6C9
Copy OK

Track 13
Filename D:\FLAC\Erich Kunzel, Cincinnati Pops Orchestra - Music Of The Beatles (2001) [FLAC]\13 - Here, There, And Everywhere.wav

Pre-gap length 0:00:06.33

Peak level 59.5 %
Track quality 100.0 %
Test CRC A50BAD1A
Copy CRC A50BAD1A
Copy OK

Track 14
Filename D:\FLAC\Erich Kunzel, Cincinnati Pops Orchestra - Music Of The Beatles (2001) [FLAC]\14 - The Long and Winding Road.wav

Pre-gap length 0:00:05.66

Peak level 96.7 %
Track quality 100.0 %
Test CRC 64510919
Copy CRC 64510919
Copy OK

Track 15
Filename D:\FLAC\Erich Kunzel, Cincinnati Pops Orchestra - Music Of The Beatles (2001) [FLAC]\15 - Hey Jude.wav

Pre-gap length 0:00:03.57

Peak level 100.0 %
Track quality 100.0 %
Test CRC 59FA2B6C
Copy CRC 59FA2B6C
Copy OK

Track 16
Filename D:\FLAC\Erich Kunzel, Cincinnati Pops Orchestra - Music Of The Beatles (2001) [FLAC]\16 - Let It Be.wav

Pre-gap length 0:00:05.84

Peak level 98.3 %
Track quality 100.0 %
Test CRC C2C58CC6
Copy CRC C2C58CC6
Copy OK

No errors occured


End of status report


Erich Kunzel/Cincinnati Pops Orchestra featuring King'Singers - Music Of The Beatles (2001) {Telarc} **[RE-UP]**