Subcategories

Anoushka Shankar - Live At Carnegie Hall (2001) {Angel}

Posted By: TestTickles
Anoushka Shankar - Live At Carnegie Hall (2001) {Angel}

Anoushka Shankar - Live At Carnegie Hall (2001) {Angel}
EAC Rip | FLAC with CUE and log | scans | 365 mb
MP3 CBR 320kbps | RAR | 163 mb
Genre: Indian classical

Live At Carnegie Hall is a 2001 live album by Anoushka Shankar. It consists of her performance at Carnegie Hall in New York City plus a track performed at a festival in London. This was released by Angel Records.

Anoushka Shankar - Live At Carnegie Hall (2001) {Angel}

1. Introduction
2. Raga Madhuvanti: Alap
3. Raga Madhuvanti: Gat In Rupak
4. Raga Desh
5. Bhupali Tabla Duet
6. Raga Mishra Piloo

Anoushka Shankar-sitar
Bikram Ghosh-tabla
Tanmoy Bose-tabla
Ajay Sharma-tanpura (tracks 1-5)
Barry Phillips-tanpura (track 1-5)
Anthony Karasek-tanpura (track 6)
Natasha Ahbad-tanpura (track 6)

Produced by Hans Wendl
Associate producer: Gilbert Hetherwick
Recorded & mixed by Tom Lazarus
Recorded live at Carnegie Hall, New York City, 6 October, 2000 except track 6m recorded at the Salisbury Festival, England, 8 June, 2001
Mastered by Scott Hull

Exact Audio Copy V1.0 beta 6 from 9. April 2015

EAC extraction logfile from 15. May 2018, 12:04

Anoushka Shankar / Live At Carnegie Hall

Used drive : TSSTcorpDVD+-RW TS-L633C Adapter: 1 ID: 0

Read mode : Secure
Utilize accurate stream : Yes
Defeat audio cache : Yes
Make use of C2 pointers : No

Read offset correction : 6
Overread into Lead-In and Lead-Out : No
Fill up missing offset samples with silence : Yes
Delete leading and trailing silent blocks : No
Null samples used in CRC calculations : Yes
Used interface : Native Win32 interface for Win NT & 2000
Gap handling : Appended to previous track

Used output format : Internal WAV Routines
Sample format : 44.100 Hz; 16 Bit; Stereo


TOC of the extracted CD

Track | Start | Length | Start sector | End sector
––––––––––––––––––––––––––––-
1 | 0:00.00 | 0:29.11 | 0 | 2185
2 | 0:29.11 | 9:56.45 | 2186 | 46930
3 | 10:25.56 | 8:43.32 | 46931 | 86187
4 | 19:09.13 | 11:53.63 | 86188 | 139725
5 | 31:03.01 | 10:07.46 | 139726 | 185296
6 | 41:10.47 | 18:56.51 | 185297 | 270547


Track 1

Filename C:\My Documents\My FLAC\Anoushka Shankar - Live At Carnegie Hall (2001) [FLAC] {Angel}\01 - Introduction.wav

Pre-gap length 0:00:02.00

Peak level 53.1 %
Extraction speed 0.5 X
Track quality 100.0 %
Test CRC E0AC23A5
Copy CRC E0AC23A5
Accurately ripped (confidence 16) [6E8DAA31] (AR v2)
Copy OK

Track 2

Filename C:\My Documents\My FLAC\Anoushka Shankar - Live At Carnegie Hall (2001) [FLAC] {Angel}\02 - Raga Madhuvanti- Alap.wav

Peak level 51.5 %
Extraction speed 1.3 X
Track quality 99.9 %
Test CRC 939A6460
Copy CRC 939A6460
Accurately ripped (confidence 14) [2731F13C] (AR v2)
Copy OK

Track 3

Filename C:\My Documents\My FLAC\Anoushka Shankar - Live At Carnegie Hall (2001) [FLAC] {Angel}\03 - Raga Madhuvanti- Gat In Rupak.wav

Peak level 100.0 %
Extraction speed 1.6 X
Track quality 100.0 %
Test CRC BA9CACBD
Copy CRC BA9CACBD
Accurately ripped (confidence 15) [F45CF741] (AR v2)
Copy OK

Track 4

Filename C:\My Documents\My FLAC\Anoushka Shankar - Live At Carnegie Hall (2001) [FLAC] {Angel}\04 - Raga Desh.wav

Peak level 100.0 %
Extraction speed 1.9 X
Track quality 100.0 %
Test CRC 057C3E47
Copy CRC 057C3E47
Accurately ripped (confidence 14) [352C7CE3] (AR v2)
Copy OK

Track 5

Filename C:\My Documents\My FLAC\Anoushka Shankar - Live At Carnegie Hall (2001) [FLAC] {Angel}\05 - Bhupali Tabla Duet.wav

Peak level 100.0 %
Extraction speed 2.1 X
Track quality 100.0 %
Test CRC 6613AE62
Copy CRC 6613AE62
Accurately ripped (confidence 14) [440DB69C] (AR v2)
Copy OK

Track 6

Filename C:\My Documents\My FLAC\Anoushka Shankar - Live At Carnegie Hall (2001) [FLAC] {Angel}\06 - Raga Mishra Piloo.wav

Peak level 100.0 %
Extraction speed 1.5 X
Track quality 100.0 %
Test CRC 108E7384
Copy CRC 108E7384
Accurately ripped (confidence 13) [823BD20B] (AR v2)
Copy OK


All tracks accurately ripped

No errors occurred

End of status report

–– CUETools DB Plugin V2.1.6

[CTDB TOCID: HwOnGeSRw61bcQYNIyA1tDttiVM-] found
Submit result: HwOnGeSRw61bcQYNIyA1tDttiVM- has been confirmed
Track | CTDB Status
1 | (14/46) Accurately ripped
2 | (14/46) Accurately ripped
3 | (14/46) Accurately ripped
4 | (14/46) Accurately ripped
5 | (14/46) Accurately ripped
6 | (13/46) Accurately ripped


==== Log checksum 80193581049269DD59C59BC84AF0EF2FBCBEBEB024528032722DA80060CF927D ====


Anoushka Shankar - Live At Carnegie Hall (2001) {Angel}