Subcategories

Anthrax - Make Me Laugh (UK CD5) (1988) **[RE-UP]**

Posted By: TestTickles
Anthrax - Make Me Laugh (UK CD5) (1988) **[RE-UP]**

Anthrax - Make Me Laugh (UK CD5) (1988)
EAC Rip | FLAC with CUE and log | scans | 122 mb
MP3 CBR 320kbps | RAR | 51 mb
Genre: speed metal, thrash metal, heavy metal, classic rock

Make Me Laugh is a 1988 CD single released by New York speed metal band Anthrax. Released as their first single for their 4th album State Of Euphoria, this features a non-LP Sex Pistols cover for "Friggin' In The Riggin" plus a live performance of their cover of Trust's "Antisocial", which features the lead vocalist from Trust, Bernie Bonvoisin, to help out. The CD was packaged in a pyramid cover.

Anthrax - Make Me Laugh (UK CD5) (1988) **[RE-UP]**

1. Make Me Laugh
2. Friggin' In The Riggin'
3. Antisocial (Live)
–-
Joey Belladonna-vocals
Scott Ian-guitar, background vocals
Dan Spitz-guitar, background vocals
Frank Bello-bass, background vocals
Charlie Benante-drums, background vocals

Tracks 1 & 2 produced by Anthrax and Mark Dodson
Track 3 produced by Anthrax and Alex Perialas

Track 3 recorded live at Hammersmith Odeon

EAC extraction logfile from 26. December 2005, 13:36 for CD
Anthrax / Make Me Laugh (CD5)

Used drive : LITE-ON DVDRW SOHW-1633S Adapter: 0 ID: 0
Read mode : Secure with NO C2, accurate stream, disable cache
Read offset correction : 12
Overread into Lead-In and Lead-Out : No

Used output format : Internal WAV Routines
44.100 Hz; 16 Bit; Stereo

Other options :
Fill up missing offset samples with silence : Yes
Delete leading and trailing silent blocks : No
Installed external ASPI interface


Track 1
Filename D:\FLAC\Anthrax - Make Me Laugh (CD5) (1988) [FLAC]\01 - Make Me Laugh.wav

Pre-gap length 0:00:02.00

Peak level 100.0 %
Track quality 100.0 %
Test CRC 417D3227
Copy CRC 417D3227
Copy OK

Track 2
Filename D:\FLAC\Anthrax - Make Me Laugh (CD5) (1988) [FLAC]\02 - Friggin' In The Riggin'.wav

Pre-gap length 0:00:02.00

Peak level 100.0 %
Track quality 99.9 %
Test CRC 59151C63
Copy CRC 59151C63
Copy OK

Track 3
Filename D:\FLAC\Anthrax - Make Me Laugh (CD5) (1988) [FLAC]\03 - Antisocial (Live).wav

Pre-gap length 0:00:03.00

Peak level 100.0 %
Track quality 100.0 %
Test CRC 418975DF
Copy CRC 418975DF
Copy OK

No errors occured


End of status report