Subcategories

Aphex Twin - Windowlicker (EP) (1999) {Warp/Sire}

Posted By: TestTickles
Aphex Twin - Windowlicker (EP) (1999) {Warp/Sire}

Aphex Twin - Windowlicker (EP) (1999) {Warp/Sire}
EAC Rip | FLAC with CUE and LOG | scans | 104 mb
MP3 CBR 320 kbps | RAR | 36 mb
Genre: electronica, IDM

Windowlicker is a 1999 EP by Aphex Twin. This was released by Warp/Sire.

1. Windowlicker (6:07)
2. ΔMi−1 = −αΣn=1NDi[n][Σj∈C[i]Fji[n - 1] + Fexti[n-1]] [Formula] (5:47)
3. Nannou (4:13)

Exact Audio Copy V0.99 prebeta 4 from 23. January 2008

EAC extraction logfile from 11. December 2009, 11:25

Aphex Twin / Windowlicker (EP)

Used drive: HL-DT-STDVDRAM GSA-H12NAdapter: 0ID: 0

Read mode: Secure
Utilize accurate stream : Yes
Defeat audio cache: Yes
Make use of C2 pointers : No

Read offset correction: 667
Overread into Lead-In and Lead-Out: No
Fill up missing offset samples with silence : Yes
Delete leading and trailing silent blocks: No
Null samples used in CRC calculations: Yes
Used interface: Native Win32 interface for Win NT & 2000
Gap handling: Appended to previous track

Used output format: User Defined Encoder
Selected bitrate: 128 kBit/s
Quality: High
Add ID3 tag: No
Command line compressor: G:\Applications\Exact Audio Copy\Flac\flac.exe
Additional command line options : -V -8 -T "artist=%a" -T "title=%t" -T "album=%g" -T "date=%y" -T "tracknumber=%n"

-T "genre=%m" %s

TOC of the extracted CD

Track |Start|Length| Start sector | End sector
––––––––––––––––––––––––––––-
1|0:00.00 |6:08.30 |0|27629
2|6:08.30 |5:47.06 |27630|53660
3| 11:55.36 |4:15.58 |53661|72843

Track1

Filename C:\cuntfist\FLAC\Aphex Twin - Windowlicker (EP) (1999) [FLAC] {Warp, Sire}\01 - Windowlicker.wav

Pre-gap length0:00:02.00

Peak level 100.0 %
Track quality 100.0 %
Test CRC 24576E51
Copy CRC 24576E51
Copy OK

Track2

Filename C:\cuntfist\FLAC\Aphex Twin - Windowlicker (EP) (1999) [FLAC] {Warp, Sire}\02 - [Formula].wav

Pre-gap length0:00:02.24

Peak level 100.0 %
Track quality 100.0 %
Test CRC D662C368
Copy CRC D662C368
Copy OK

Track3

Filename C:\cuntfist\FLAC\Aphex Twin - Windowlicker (EP) (1999) [FLAC] {Warp, Sire}\03 - Nannou.wav

Pre-gap length0:00:02.58

Peak level 100.0 %
Track quality 100.0 %
Test CRC 134F6272
Copy CRC 134F6272
Copy OK

No errors occurred

End of status report


Aphex Twin - Windowlicker (EP) (1999) {Warp/Sire}


Thank you to the original uploader.