Subcategories

Arthur Lyman - The Exotic Sound Of The Arthur Lyman Group (1991) {DCC Steve Hoffman} **[RE-UP]**

Posted By: TestTickles
Arthur Lyman - The Exotic Sound Of The Arthur Lyman Group (1991) {DCC Steve Hoffman} **[RE-UP]**

Arthur Lyman - The Exotic Sound Of The Arthur Lyman Group (1991) {DCC Steve Hoffman}
EAC Rip | FLAC with CUE and log | scans | 419 mb
MP3 CBR 320kbps | RAR | 177 mb
Genre: pop, tropical, lounge, exotica

The Exotic Sound Of The Arthur Lyman Group is a 1991 CD by Arthur Lyman. Released by DCC, it combines two of his albums on the Hi-Fi label, Taboo and Yellow Bird and was remastered by Steve Hoffman.

Arthur Lyman - The Exotic Sound Of The Arthur Lyman Group (1991) {DCC Steve Hoffman} **[RE-UP]**

01. Taboo
02. China Clipper
03. Fire Down Below
04. Cubana Chant
05. Kinkajou
06. Fascination
07. Ye Lai Sian
08. Yellow Bird
09. Jungle Drums
10. Love For Sale
11. Otome San (Japanese Drink Song)
12. Quiet Village
13. Tropical
14. Busy Port
15. Bwana A
16. Moon Over A Ruined Castle
17. Arrive Derce Roma
18. March Of The Siamese Children
19. Blue Hawaii
20. Brazilleros
21. Dahil Sayo
22. Leis Of Jazz
23. Anna
24. Hava Nagila
25. Hawaiian Wedding Song (Ke Kali Ne Au)

–-
Arthur Lyman-4-mallet vibes, guitar, percussions of all kinds
John Kramer-bass, ukulele, guitar, flute, clarinet and percussion
Alan Soares-piano, celeste, guitar, glockenspiel, chimes, clavietta and percussion
Harold Chang-percussion virtuoso

Several tracks also feature Chew Hoon Chang on flute and moon harp

###

Produced and recorded by Richard Vaughn for his Hi-Fi Records label, 1957-1964
Compiled by Steve Hoffman with help from Arthur Lyman, Harold Chang, and Jerry Tolmich
Recorded in Hawaii at the Henry J. Kaiser Aluminum Dome

Mastered by Steve Hoffman and Kevin Gray
Mastered at Steve's Place, West Hills, California

Arthur Lyman - The Exotic Sound Of The Arthur Lyman Group (1991) {DCC Steve Hoffman} **[RE-UP]**


EAC extraction logfile from 21. April 2007, 13:19 for CD
Arthur Lyman Group / The Exotic Sounds Of…

Used drive : LITE-ON DVDRW SOHW-1633S Adapter: 0 ID: 0
Read mode : Secure with NO C2, accurate stream, disable cache
Read offset correction : 12
Overread into Lead-In and Lead-Out : No

Used output format : Internal WAV Routines
44.100 Hz; 16 Bit; Stereo

Other options :
Fill up missing offset samples with silence : Yes
Delete leading and trailing silent blocks : No
Installed external ASPI interface


Track 1
Filename D:\FLAC\Arthur Lyman Group - The Exotic Sounds Of… (1991) [FLAC] {DCC Steve Hoffman}\01 - Taboo.wav

Pre-gap length 0:00:02.00

Peak level 95.4 %
Track quality 100.0 %
Test CRC EE1C4751
Copy CRC EE1C4751
Copy OK

Track 2
Filename D:\FLAC\Arthur Lyman Group - The Exotic Sounds Of… (1991) [FLAC] {DCC Steve Hoffman}\02 - China Clipper.wav

Pre-gap length 0:00:06.96

Peak level 73.9 %
Track quality 100.0 %
Test CRC 40341662
Copy CRC 40341662
Copy OK

Track 3
Filename D:\FLAC\Arthur Lyman Group - The Exotic Sounds Of… (1991) [FLAC] {DCC Steve Hoffman}\03 - Fire Down Below.wav

Pre-gap length 0:00:04.24

Peak level 100.0 %
Track quality 100.0 %
Test CRC 747318F3
Copy CRC 747318F3
Copy OK

Track 4
Filename D:\FLAC\Arthur Lyman Group - The Exotic Sounds Of… (1991) [FLAC] {DCC Steve Hoffman}\04 - Cubana Chant.wav

Pre-gap length 0:00:02.46

Peak level 96.9 %
Track quality 100.0 %
Test CRC E0A8708F
Copy CRC E0A8708F
Copy OK

Track 5
Filename D:\FLAC\Arthur Lyman Group - The Exotic Sounds Of… (1991) [FLAC] {DCC Steve Hoffman}\05 - Kinkajou.wav

Pre-gap length 0:00:03.53

Peak level 61.5 %
Track quality 99.9 %
Test CRC 2BC4397F
Copy CRC 2BC4397F
Copy OK

Track 6
Filename D:\FLAC\Arthur Lyman Group - The Exotic Sounds Of… (1991) [FLAC] {DCC Steve Hoffman}\06 - Fascination.wav

Pre-gap length 0:00:04.70

Peak level 69.1 %
Track quality 100.0 %
Test CRC 806AE8CA
Copy CRC 806AE8CA
Copy OK

Track 7
Filename D:\FLAC\Arthur Lyman Group - The Exotic Sounds Of… (1991) [FLAC] {DCC Steve Hoffman}\07 - Ye Lai Sian.wav

Pre-gap length 0:00:02.13

Peak level 67.0 %
Track quality 100.0 %
Test CRC 9DFB3C6D
Copy CRC 9DFB3C6D
Copy OK

Track 8
Filename D:\FLAC\Arthur Lyman Group - The Exotic Sounds Of… (1991) [FLAC] {DCC Steve Hoffman}\08 - Yellow Bird.wav

Pre-gap length 0:00:04.97

Peak level 73.6 %
Track quality 100.0 %
Test CRC E6C1925B
Copy CRC E6C1925B
Copy OK

Track 9
Filename D:\FLAC\Arthur Lyman Group - The Exotic Sounds Of… (1991) [FLAC] {DCC Steve Hoffman}\09 - Jungle Drums.wav

Pre-gap length 0:00:05.73

Peak level 80.1 %
Track quality 100.0 %
Test CRC 80B90D68
Copy CRC 80B90D68
Copy OK

Track 10
Filename D:\FLAC\Arthur Lyman Group - The Exotic Sounds Of… (1991) [FLAC] {DCC Steve Hoffman}\10 - Love For Sale.wav

Pre-gap length 0:00:06.17

Peak level 94.3 %
Track quality 100.0 %
Test CRC 79A998F8
Copy CRC 79A998F8
Copy OK

Track 11
Filename D:\FLAC\Arthur Lyman Group - The Exotic Sounds Of… (1991) [FLAC] {DCC Steve Hoffman}\11 - Otome San (Japanese Drink Song).wav

Pre-gap length 0:00:04.73

Peak level 96.6 %
Track quality 100.0 %
Test CRC 345D0A8C
Copy CRC 345D0A8C
Copy OK

Track 12
Filename D:\FLAC\Arthur Lyman Group - The Exotic Sounds Of… (1991) [FLAC] {DCC Steve Hoffman}\12 - Quiet Village.wav

Pre-gap length 0:00:06.60

Peak level 91.3 %
Track quality 99.9 %
Test CRC D0989C0C
Copy CRC D0989C0C
Copy OK

Track 13
Filename D:\FLAC\Arthur Lyman Group - The Exotic Sounds Of… (1991) [FLAC] {DCC Steve Hoffman}\13 - Tropical.wav

Pre-gap length 0:00:02.93

Peak level 100.0 %
Track quality 100.0 %
Test CRC ECB44073
Copy CRC ECB44073
Copy OK

Track 14
Filename D:\FLAC\Arthur Lyman Group - The Exotic Sounds Of… (1991) [FLAC] {DCC Steve Hoffman}\14 - Busy Port.wav

Pre-gap length 0:00:07.13

Peak level 93.2 %
Track quality 100.0 %
Test CRC A76C68E2
Copy CRC A76C68E2
Copy OK

Track 15
Filename D:\FLAC\Arthur Lyman Group - The Exotic Sounds Of… (1991) [FLAC] {DCC Steve Hoffman}\15 - Bwana A.wav

Pre-gap length 0:00:07.62

Peak level 99.2 %
Track quality 99.9 %
Test CRC DAD85EDD
Copy CRC DAD85EDD
Copy OK

Track 16
Filename D:\FLAC\Arthur Lyman Group - The Exotic Sounds Of… (1991) [FLAC] {DCC Steve Hoffman}\16 - Moon Over A Ruined Castle.wav

Pre-gap length 0:00:03.86

Peak level 58.7 %
Track quality 100.0 %
Test CRC 0731DDAF
Copy CRC 0731DDAF
Copy OK

Track 17
Filename D:\FLAC\Arthur Lyman Group - The Exotic Sounds Of… (1991) [FLAC] {DCC Steve Hoffman}\17 - Arrive Derce Roma.wav

Pre-gap length 0:00:06.02

Peak level 83.7 %
Track quality 100.0 %
Test CRC 85C9D048
Copy CRC 85C9D048
Copy OK

Track 18
Filename D:\FLAC\Arthur Lyman Group - The Exotic Sounds Of… (1991) [FLAC] {DCC Steve Hoffman}\18 - March Of The Siamese Children.wav

Pre-gap length 0:00:09.40

Peak level 81.9 %
Track quality 100.0 %
Test CRC E02799F6
Copy CRC E02799F6
Copy OK

Track 19
Filename D:\FLAC\Arthur Lyman Group - The Exotic Sounds Of… (1991) [FLAC] {DCC Steve Hoffman}\19 - Blue Hawaii.wav

Pre-gap length 0:00:03.90

Peak level 57.0 %
Track quality 100.0 %
Test CRC DAC2CCB1
Copy CRC DAC2CCB1
Copy OK

Track 20
Filename D:\FLAC\Arthur Lyman Group - The Exotic Sounds Of… (1991) [FLAC] {DCC Steve Hoffman}\20 - Brazilleros.wav

Pre-gap length 0:00:06.77

Peak level 100.0 %
Track quality 100.0 %
Test CRC D723CA32
Copy CRC D723CA32
Copy OK

Track 21
Filename D:\FLAC\Arthur Lyman Group - The Exotic Sounds Of… (1991) [FLAC] {DCC Steve Hoffman}\21 - Dahil Sayo.wav

Pre-gap length 0:00:06.80

Peak level 69.4 %
Track quality 100.0 %
Test CRC 85EB610D
Copy CRC 85EB610D
Copy OK

Track 22
Filename D:\FLAC\Arthur Lyman Group - The Exotic Sounds Of… (1991) [FLAC] {DCC Steve Hoffman}\22 - Leis Of Jazz.wav

Pre-gap length 0:00:05.89

Peak level 70.7 %
Track quality 100.0 %
Test CRC EF9D58B1
Copy CRC EF9D58B1
Copy OK

Track 23
Filename D:\FLAC\Arthur Lyman Group - The Exotic Sounds Of… (1991) [FLAC] {DCC Steve Hoffman}\23 - Anna.wav

Pre-gap length 0:00:07.69

Peak level 63.9 %
Track quality 100.0 %
Test CRC 4DF469EE
Copy CRC 4DF469EE
Copy OK

Track 24
Filename D:\FLAC\Arthur Lyman Group - The Exotic Sounds Of… (1991) [FLAC] {DCC Steve Hoffman}\24 - Hava Nagila.wav

Pre-gap length 0:00:09.04

Peak level 95.4 %
Track quality 100.0 %
Test CRC 05326BF6
Copy CRC 05326BF6
Copy OK

Track 25
Filename D:\FLAC\Arthur Lyman Group - The Exotic Sounds Of… (1991) [FLAC] {DCC Steve Hoffman}\25 - Hawaiian Wedding Song (Ke Kali Ne Au).wav

Pre-gap length 0:00:04.46

Peak level 39.7 %
Track quality 100.0 %
Test CRC 2C98B9BC
Copy CRC 2C98B9BC
Copy OK

No errors occured


End of status report


Arthur Lyman - The Exotic Sound Of The Arthur Lyman Group (1991) {DCC Steve Hoffman} **[RE-UP]**