Subcategories

VA - A Tribute To Erasure: Sometimes (1999) {Hypnotic}

Posted By: TestTickles
VA - A Tribute To Erasure: Sometimes (1999) {Hypnotic}

VA - A Tribute To Erasure: Sometimes (1999) {Hypnotic}
EAC Rip | FLAC with CUE and log | scans | 338 mb
MP3 CBR 320 kbps | RAR | 110 mb
Genre: synth pop

British homosexual dance duo Erasure are honored in a major way with a tribute CD released in 1999 called A Tribute To Erasure: Sometimes. This was released by Hypnotic because the music is for fans. It only consists of ten covers but it is ten covers of savage sounds.

VA - A Tribute To Erasure: Sometimes (1999) {Hypnotic}

01. Dressed In White – Sometimes (3:39)
02. Nova – Oh L'amour (3:28)
03. Infam – Chorus (5:48)
04. New Slips – She Won't Be Home (4:10)
05. Equatronic – Siren Song (4:29)
06. Sometimes Me – Always (3:48)
07. Philtron – When I Needed You (5:15)
08. Con-Cept – Breath Of Life (4:25)
09. Element – A Little Respect (3:29)
10. I O U – Love To Hate You (3:46)
11. DJ Attribute – Liquid Motion (Outro) (1:38)

Exact Audio Copy V1.0 beta 3 from 29. August 2011

Отчёт EAC об извлечении, выполненном 28. августейший 2016, 11:12

Various / A Tribute To Erasure, Sometimes

Дисковод: Optiarc DVD RW AD-7243S Adapter: 3 ID: 1

Режим чтения : Достоверность
Использование точного потока : Да
Отключение кэша аудио : Да
Использование указателей C2 : Нет

Коррекция смещения при чтении : 48
Способность читать области Lead-in и Lead-out : Нет
Заполнение пропущенных сэмплов тишиной : Да
Удаление блоков с тишиной в начале и конце : Нет
При вычислениях CRC использовались нулевые сэмплы : Да
Интерфейс : Установленный внешний ASPI-интерфейс

Выходной формат : Пользовательский кодировщик
Выбранный битрейт : 768 kBit/s
Качество : Высокий
Добавление ID3-тега : Нет
Утилита сжатия : C:\Program Files\Exact Audio Copy\FLAC\FLAC.EXE
Дополнительные параметры : -6 -V -T "ARTIST=%artist%" -T "TITLE=%title%" -T "ALBUM=%albumtitle%" -T "DATE=%year%" -T "TRACKNUMBER=%tracknr%" -T "GENRE=%genre%" -T "COMMENT=%comment%" -T "BAND=%albuminterpret%" -T "ALBUMARTIST=%albuminterpret%" -T "COMPOSER=%composer%" %haslyrics%–tag-from-file=LYRICS="%lyricsfile%"%haslyrics% -T "DISCNUMBER=%cdnumber%" -T "TOTALDISCS=%totalcds%" -T "TOTALTRACKS=%numtracks%" %hascover%–picture="%coverfile%"%hascover% %source% -o %dest%

TOC извлечённого CD

Трек | Старт | Длительность | Начальный сектор | Конечный сектор
––––––––––––––––––––––––––––––––––-
1 | 0:00.00 | 3:41.10 | 0 | 16584
2 | 3:41.10 | 3:30.51 | 16585 | 32385
3 | 7:11.61 | 5:50.44 | 32386 | 58679
4 | 13:02.30 | 4:12.30 | 58680 | 77609
5 | 17:14.60 | 4:31.38 | 77610 | 97972
6 | 21:46.23 | 3:50.06 | 97973 | 115228
7 | 25:36.29 | 5:17.12 | 115229 | 139015
8 | 30:53.41 | 4:27.59 | 139016 | 159099
9 | 35:21.25 | 3:31.55 | 159100 | 174979
10 | 38:53.05 | 3:48.57 | 174980 | 192136
11 | 42:41.62 | 1:38.44 | 192137 | 199530

Характеристики диапазона извлечения и сообщения об ошибках

Выбранный диапазон

Имя файла C:\FLAC\VA - A Tribute To Erasure, Sometimes (1999) [FLAC] {Hypnotic}\A Tribute To Erasure, Sometimes.wav

Пиковый уровень 99.4 %
Скорость извлечения 3.9 X
Качество диапазона 100.0 %
CRC теста 13FFE99F
CRC копии 13FFE99F
Копирование… OK

Ошибок не произошло

Конец отчёта

==== Контрольная сумма отчёта 9031D323930154E245E207720596376DBDDE9DDBB9575A4E7CB91C5FDF87D03C ====


VA - A Tribute To Erasure: Sometimes (1999) {Hypnotic}


Thank you to the original uploader.