Subcategories

Sadus - A Vision Of Misery (1992) {2008 CD-Maximum Russia}

Posted By: TestTickles
Sadus - A Vision Of Misery (1992) {2008 CD-Maximum Russia}

Sadus - A Vision Of Misery (1992) {2008 CD-Maximum Russia}
EAC Rip | FLAC with CUE and LOG | scans | 350 mb
MP3 CBR 320 kbps | RAR | 104 mb
Genre: death metal

A Vision Of Misery is a 1992 album by Sadus. This is a 2008 Russian remaster released by CD-Maximum, which features two bonus tracks.

01. Through The Eyes Of Greed
02. Valley Of Dry Bones
03. Machines
04. Slave To Misery
05. Throwing Away The Day
06. Facelift
07. Deceptive Perceptions
08. Under The Knife
09. Echoes Of Forever
10. Hands Of Fate (Bonus Track)
11. Number One (Bonus Track)

Exact Audio Copy V1.1 from 23. June 2015

EAC extraction logfile from 14. March 2019, 7:42

Sadus / A Vision of Misery

Used drive : HL-DT-STDVDRAM GH24NS95 Adapter: 1 ID: 0

Read mode : Secure
Utilize accurate stream : Yes
Defeat audio cache : Yes
Make use of C2 pointers : No

Read offset correction : 6
Overread into Lead-In and Lead-Out : No
Fill up missing offset samples with silence : Yes
Delete leading and trailing silent blocks : No
Null samples used in CRC calculations : Yes
Used interface : Native Win32 interface for Win NT & 2000

Used output format : User Defined Encoder
Selected bitrate : 1024 kBit/s
Quality : High
Add ID3 tag : No
Command line compressor : C:\Program Files\Exact Audio Copy\Flac\flac.exe
Additional command line options : -V -8 -T "Date=%year%" -T "Genre=%genre%" -T "Comment=Ripped by Kaustikk" -8 -V %source%


TOC of the extracted CD

Track | Start | Length | Start sector | End sector
––––––––––––––––––––––––––––-
1 | 0:00.00 | 4:16.46 | 0 | 19245
2 | 4:16.46 | 2:21.62 | 19246 | 29882
3 | 6:38.33 | 3:51.40 | 29883 | 47247
4 | 10:29.73 | 4:01.03 | 47248 | 65325
5 | 14:31.01 | 3:43.20 | 65326 | 82070
6 | 18:14.21 | 7:00.20 | 82071 | 113590
7 | 25:14.41 | 3:35.45 | 113591 | 129760
8 | 28:50.11 | 2:10.25 | 129761 | 139535
9 | 31:00.36 | 6:00.70 | 139536 | 166605
10 | 37:01.31 | 4:14.23 | 166606 | 185678
11 | 41:15.54 | 5:42.23 | 185679 | 211351


Range status and errors

Selected range

Filename C:\cuntfist\FLAC\Sadus - A Vision Of Misery (1992) [FLAC] {2008 CD-Maximum}\Sadus - A Vision Of Misery.wav

Peak level 99.9 %
Extraction speed 6.7 X
Range quality 99.9 %
Test CRC 6AB45750
Copy CRC 6AB45750
Copy OK

No errors occurred


AccurateRip summary

Track 1 cannot be verified as accurate (confidence 5) [0B8B493D], AccurateRip returned [E8C4B10D] (AR v2)
Track 2 cannot be verified as accurate (confidence 6) [2F5C894A], AccurateRip returned [EC84343E] (AR v2)
Track 3 cannot be verified as accurate (confidence 6) [F6CC804A], AccurateRip returned [DCBC3694] (AR v2)
Track 4 cannot be verified as accurate (confidence 6) [2104697A], AccurateRip returned [17561158] (AR v2)
Track 5 cannot be verified as accurate (confidence 6) [4E52C89B], AccurateRip returned [93DE17F7] (AR v2)
Track 6 cannot be verified as accurate (confidence 6) [107B844A], AccurateRip returned [3E38E56F] (AR v2)
Track 7 cannot be verified as accurate (confidence 6) [CA28E63D], AccurateRip returned [FCDD0D3D] (AR v2)
Track 8 cannot be verified as accurate (confidence 6) [32DDC1E3], AccurateRip returned [13A550F7] (AR v2)
Track 9 cannot be verified as accurate (confidence 6) [A4101F62], AccurateRip returned [64893496] (AR v2)
Track 10 cannot be verified as accurate (confidence 6) [C6FD162D], AccurateRip returned [1540F26C] (AR v2)
Track 11 cannot be verified as accurate (confidence 5) [4E2FCB65], AccurateRip returned [F7EC8AA4] (AR v2)

No tracks could be verified as accurate
You may have a different pressing from the one(s) in the database

End of status report

–– CUETools DB Plugin V2.1.6

[CTDB TOCID: ZkBckk4Ar84nKJjUfupfsu.nhRs-] found
Submit result: ZkBckk4Ar84nKJjUfupfsu.nhRs- has been confirmed
Track | CTDB Status
1 | (15/15) Accurately ripped
2 | (15/15) Accurately ripped
3 | (15/15) Accurately ripped
4 | (15/15) Accurately ripped
5 | (15/15) Accurately ripped
6 | (15/15) Accurately ripped
7 | (15/15) Accurately ripped
8 | (15/15) Accurately ripped
9 | (15/15) Accurately ripped
10 | (15/15) Accurately ripped
11 | (14/15) Accurately ripped


==== Log checksum 28490E78C43123D163DC17BA23235EA62523F1557FEE30A8257A2F2F4DEC5CBF ====


Sadus - A Vision Of Misery (1992) {2008 CD-Maximum Russia}


Thank you to the original uploader.