Subcategories

VA - Surprise Your Pig: A Tribute To R.E.M. (1992) **[RE-UP]**

Posted By: TestTickles
VA - Surprise Your Pig: A Tribute To R.E.M. (1992) **[RE-UP]**

VA - Surprise Your Pig: A Tribute To R.E.M. (1992)
EAC Rip | FLAC with CUE and log | scans | 421 mb
MP3 CBR 320kbps | RAR | 143 mb
Genre: alternative, indie rock, punk rock

An interesting and at times a peculiar R.E.M. tribute album released in 1992 by Staplegun Records, which lasted only a year before they went belly up. The CD featured covers by Mr. T Experience, Phleg, Camp, J-Church, Mitch Easter, Gumball, Jawbreaker and 11 others.

VA - Surprise Your Pig: A Tribute To R.E.M. (1992) **[RE-UP]**

1. Just Say No - Radio Free Europe (3:12)
2. Band Of Susans - 1,000,000 (4:26)
3. Gumball - Stumble (6:20)
4. Steel Pole Bath Tub - We Walk (3:40)
5. Samson & The Philistines - Talk About The Passion (4:07)
6. Jawbreaker - Pretty Persuasion (5:36)
7. J-Church - (Don't Go Back To) Rockville (3:40)
8. Phleg Camp - Feeling Gravity's Pull (3:03)
9. Mr T. Experience - Can't Get There From Here (2:51)
10. Flor De Mal - Good Advices (3:06)
11. The Punchline - Bandwagon (2:20)
12. When People Were Shorter And Lived Near The Water - I Believe (2:39)
13. Vic Chestnutt - It's The End Of The World As We Know It (And I Feel Fine) (4:04)
14. King Missile - Get Up (2:32)
15. Tesco Vee's Hate Police - Losing My Religion (3:05)
16. Jawbox - Low (4:03)
17. Mitch Easter - Shiny Happy People (3:28)

EAC extraction logfile from 18. July 2006, 11:19 for CD
Various Artists / Surprise Your Pig: A Tribute To R.E.M.

Used drive : LITE-ON DVDRW SOHW-1633S Adapter: 0 ID: 0
Read mode : Secure with NO C2, accurate stream, disable cache
Read offset correction : 12
Overread into Lead-In and Lead-Out : No

Used output format : Internal WAV Routines
44.100 Hz; 16 Bit; Stereo

Other options :
Fill up missing offset samples with silence : Yes
Delete leading and trailing silent blocks : No
Installed external ASPI interface


Track 1
Filename D:\FLAC\VA - Surprise Your Pig, A Tribute To R.E.M. (1992) [FLAC]\01 - Just Say No - Radio Free Europe.wav

Pre-gap length 0:00:02.89

Peak level 47.0 %
Track quality 99.9 %
Test CRC 7EE75222
Copy CRC 7EE75222
Copy OK

Track 2
Filename D:\FLAC\VA - Surprise Your Pig, A Tribute To R.E.M. (1992) [FLAC]\02 - Band Of Susans - 1,000,000.wav

Pre-gap length 0:00:02.76

Peak level 63.0 %
Track quality 99.9 %
Test CRC 53969206
Copy CRC 53969206
Copy OK

Track 3
Filename D:\FLAC\VA - Surprise Your Pig, A Tribute To R.E.M. (1992) [FLAC]\03 - Gumball - Stumble.wav

Pre-gap length 0:00:02.76

Peak level 66.9 %
Track quality 100.0 %
Test CRC 0553C37B
Copy CRC 0553C37B
Copy OK

Track 4
Filename D:\FLAC\VA - Surprise Your Pig, A Tribute To R.E.M. (1992) [FLAC]\04 - Steel Pole Bath Tub - We Walk.wav

Pre-gap length 0:00:02.80

Peak level 56.7 %
Track quality 100.0 %
Test CRC 7813F340
Copy CRC 7813F340
Copy OK

Track 5
Filename D:\FLAC\VA - Surprise Your Pig, A Tribute To R.E.M. (1992) [FLAC]\05 - Samson & The Philistines - Talk About The Passion.wav

Pre-gap length 0:00:02.80

Peak level 81.9 %
Track quality 100.0 %
Test CRC 688DD3E5
Copy CRC 688DD3E5
Copy OK

Track 6
Filename D:\FLAC\VA - Surprise Your Pig, A Tribute To R.E.M. (1992) [FLAC]\06 - Jawbreaker - Pretty Persuasion.wav

Pre-gap length 0:00:02.77

Peak level 49.3 %
Track quality 100.0 %
Test CRC B0481206
Copy CRC B0481206
Copy OK

Track 7
Filename D:\FLAC\VA - Surprise Your Pig, A Tribute To R.E.M. (1992) [FLAC]\07 - J-Church - (Don't Go Back To) Rockville.wav

Pre-gap length 0:00:02.80

Peak level 72.0 %
Track quality 100.0 %
Test CRC A16110A8
Copy CRC A16110A8
Copy OK

Track 8
Filename D:\FLAC\VA - Surprise Your Pig, A Tribute To R.E.M. (1992) [FLAC]\08 - Phleg Camp - Feeling Gravity's Pull.wav

Pre-gap length 0:00:03.26

Peak level 82.8 %
Track quality 99.9 %
Test CRC 47CBDB9A
Copy CRC 47CBDB9A
Copy OK

Track 9
Filename D:\FLAC\VA - Surprise Your Pig, A Tribute To R.E.M. (1992) [FLAC]\09 - Mr T. Experience - Can't Get There From Here.wav

Pre-gap length 0:00:02.73

Peak level 63.1 %
Track quality 100.0 %
Test CRC 96CF5148
Copy CRC 96CF5148
Copy OK

Track 10
Filename D:\FLAC\VA - Surprise Your Pig, A Tribute To R.E.M. (1992) [FLAC]\10 - Flor De Mal - Good Advices.wav

Pre-gap length 0:00:02.73

Peak level 54.6 %
Track quality 100.0 %
Test CRC 375DBCBE
Copy CRC 375DBCBE
Copy OK

Track 11
Filename D:\FLAC\VA - Surprise Your Pig, A Tribute To R.E.M. (1992) [FLAC]\11 - The Punchline - Bandwagon.wav

Pre-gap length 0:00:02.80

Peak level 67.2 %
Track quality 100.0 %
Test CRC 2EF1AD21
Copy CRC 2EF1AD21
Copy OK

Track 12
Filename D:\FLAC\VA - Surprise Your Pig, A Tribute To R.E.M. (1992) [FLAC]\12 - When People Were Shorter And Lived Near The Water - I Believe.wav

Pre-gap length 0:00:02.77

Peak level 82.6 %
Track quality 100.0 %
Test CRC A3B1EF6C
Copy CRC A3B1EF6C
Copy OK

Track 13
Filename D:\FLAC\VA - Surprise Your Pig, A Tribute To R.E.M. (1992) [FLAC]\13 - Vic Chestnutt - It's The End Of The World As We Know It (And I Feel Fine).wav

Pre-gap length 0:00:02.76

Peak level 70.4 %
Track quality 100.0 %
Test CRC 858C145B
Copy CRC 858C145B
Copy OK

Track 14
Filename D:\FLAC\VA - Surprise Your Pig, A Tribute To R.E.M. (1992) [FLAC]\14 - King Missile - Get Up.wav

Pre-gap length 0:00:02.77

Peak level 72.5 %
Track quality 100.0 %
Test CRC C3C38DA8
Copy CRC C3C38DA8
Copy OK

Track 15
Filename D:\FLAC\VA - Surprise Your Pig, A Tribute To R.E.M. (1992) [FLAC]\15 - Tesco Vee's Hate Police - Losing My Religion.wav

Pre-gap length 0:00:02.69

Peak level 90.6 %
Track quality 100.0 %
Test CRC 7511A654
Copy CRC 7511A654
Copy OK

Track 16
Filename D:\FLAC\VA - Surprise Your Pig, A Tribute To R.E.M. (1992) [FLAC]\16 - Jawbox - Low.wav

Pre-gap length 0:00:02.73

Peak level 73.0 %
Track quality 100.0 %
Test CRC ADA18733
Copy CRC ADA18733
Copy OK

Track 17
Filename D:\FLAC\VA - Surprise Your Pig, A Tribute To R.E.M. (1992) [FLAC]\17 - Mitch Easter - Shiny Happy People.wav

Pre-gap length 0:00:02.76

Peak level 83.0 %
Track quality 100.0 %
Test CRC 1DC7E621
Copy CRC 1DC7E621
Copy OK

No errors occured


End of status report


VA - Surprise Your Pig: A Tribute To R.E.M. (1992) **[RE-UP]**