Subcategories

Spice Girls - Too Much (UK/US CD singles) (1997)

Posted By: TestTickles
Spice Girls - Too Much (UK/US CD singles) (1997)

Spice Girls - Too Much (UK/US CD singles) (1997)
EAC Rip | FLAC with CUE and log | scans | 245 mb
MP3 CBR 320kbps | RAR | 108 mb
Genre: pop, dance

Too Much is the 1997 single by British quintet the Spice Girls. This was their second single from their second album Spiceworld and this gathers the second CD5 from the UK and the US CD5 for them, both which share a few songs but each having something the other doesn't.

Spice Girls - Too Much (UK/US CD singles) (1997)

1. Too Much (Radio Edit) (3:51)
2. Too Much (Orchestral Version) (4:38)
3. Walk Of Life (4:16)
Spice Girls - Too Much (UK/US CD singles) (1997)


Tracks 1-3 produced by Absolute
Tracks 1-2 mixed by Mark "Spike" Stent
Track 3 mixed by Tom Elmhurst

Spice Girls - Too Much (UK/US CD singles) (1997)


====
Spice Girls - Too Much (UK/US CD singles) (1997)

1. Too Much (Radio Edit) (3:51)
2. Too Much (Orchestral Version) (4:38)
3. Too Much (SoulShock & Karlin Remix) (3:52)
4. Outer Space Girls (3:58)
Spice Girls - Too Much (UK/US CD singles) (1997)


Tracks 1-3 produced by Absolute
Track 4 produced by Richard Stannard & Matt Rowe

Tracks 1-2, 4 mixed by Mark "Spike" Stent

Track 3 remixed by Soulshock & Karlin
Track 3 mixed by SoulShock
Track 3 mixed and engineered by Manny Marroquin

SPICE GIRLS
Melanie Brown ("Scary Spice")
Melanie Chisholm ("Sporty Spice")
Emma Bunton ("Baby Spice")
Geri Halliwell ("Ginger Spice")
Victoria Adams ("Posh Spice")

Spice Girls - Too Much (UK/US CD singles) (1997)


Exact Audio Copy V1.1 from 23. June 2015

EAC extraction logfile from 11. June 2016, 8:05

Spice Girls / Too Much (US CD5)

Used drive : TEAC DVD-ROM DV-28SW Adapter: 1 ID: 0

Read mode : Secure
Utilize accurate stream : Yes
Defeat audio cache : Yes
Make use of C2 pointers : No

Read offset correction : 6
Overread into Lead-In and Lead-Out : No
Fill up missing offset samples with silence : Yes
Delete leading and trailing silent blocks : No
Null samples used in CRC calculations : Yes
Used interface : Native Win32 interface for Win NT & 2000
Gap handling : Left out

Used output format : Internal WAV Routines
Sample format : 44.100 Hz; 16 Bit; Stereo


TOC of the extracted CD

Track | Start | Length | Start sector | End sector
––––––––––––––––––––––––––––-
1 | 0:00.00 | 3:51.25 | 0 | 17349
2 | 3:51.25 | 4:32.17 | 17350 | 37766
3 | 8:23.42 | 3:53.58 | 37767 | 55299
4 | 12:17.25 | 3:58.40 | 55300 | 73189


Track 1

Filename C:\My Documents\My FLAC\Spice Girls - Too Much (CD singles) [FLAC]\Spice Girls - Too Much (US CD5) (1997) [FLAC]\01 - Too Much (Radio Edit).wav

Pre-gap length 0:00:02.00

Peak level 94.3 %
Extraction speed 2.6 X
Track quality 100.0 %
Test CRC 40768ADB
Copy CRC 40768ADB
Track not fully ripped for AccurateRip lookup
Copy OK

Track 2

Filename C:\My Documents\My FLAC\Spice Girls - Too Much (CD singles) [FLAC]\Spice Girls - Too Much (US CD5) (1997) [FLAC]\02 - Too Much (Orchestral Version).wav

Pre-gap length 0:00:01.35

Peak level 93.7 %
Extraction speed 3.1 X
Track quality 100.0 %
Test CRC 34047F6E
Copy CRC 34047F6E
Track not fully ripped for AccurateRip lookup
Copy OK

Track 3

Filename C:\My Documents\My FLAC\Spice Girls - Too Much (CD singles) [FLAC]\Spice Girls - Too Much (US CD5) (1997) [FLAC]\03 - Too Much (SoulShock & Karlin Remix).wav

Pre-gap length 0:00:01.27

Peak level 93.6 %
Extraction speed 2.8 X
Track quality 99.9 %
Test CRC E6293424
Copy CRC E6293424
Track not fully ripped for AccurateRip lookup
Copy OK

Track 4

Filename C:\My Documents\My FLAC\Spice Girls - Too Much (CD singles) [FLAC]\Spice Girls - Too Much (US CD5) (1997) [FLAC]\04 - Outer Space Girls.wav

Pre-gap length 0:00:01.30

Peak level 93.8 %
Extraction speed 3.7 X
Track quality 100.0 %
Test CRC 847F8F2F
Copy CRC 847F8F2F
Accurately ripped (confidence 5) [82591554] (AR v2)
Copy OK


1 track(s) accurately ripped
3 track(s) not fully ripped for AccurateRip lookup

Some tracks could not be verified as accurate

No errors occurred

End of status report

==== Log checksum 7F14865BBD903ECDDA9D531BC017653B67E8A5E2C0DA7F1F06F09F7052C287D1 ====








Exact Audio Copy V1.1 from 23. June 2015

EAC extraction logfile from 11. June 2016, 8:20

Spice Girls / Too Much (UK CD5 #2)

Used drive : TEAC DVD-ROM DV-28SW Adapter: 1 ID: 0

Read mode : Secure
Utilize accurate stream : Yes
Defeat audio cache : Yes
Make use of C2 pointers : No

Read offset correction : 6
Overread into Lead-In and Lead-Out : No
Fill up missing offset samples with silence : Yes
Delete leading and trailing silent blocks : No
Null samples used in CRC calculations : Yes
Used interface : Native Win32 interface for Win NT & 2000
Gap handling : Left out

Used output format : Internal WAV Routines
Sample format : 44.100 Hz; 16 Bit; Stereo


TOC of the extracted CD

Track | Start | Length | Start sector | End sector
––––––––––––––––––––––––––––-
1 | 0:00.00 | 3:53.15 | 0 | 17489
2 | 3:53.15 | 4:39.70 | 17490 | 38484
3 | 8:33.10 | 4:16.27 | 38485 | 57711


Track 1

Filename C:\My Documents\My FLAC\Spice Girls - Too Much (CD singles) [FLAC]\Spice Girls - Too Much (UK CD5 #2) (1997) [FLAC]\01 - Too Much (Radio Edit).wav

Pre-gap length 0:00:02.00

Peak level 99.2 %
Extraction speed 2.6 X
Track quality 100.0 %
Test CRC 8D36A342
Copy CRC 8D36A342
Track not fully ripped for AccurateRip lookup
Copy OK

Track 2

Filename C:\My Documents\My FLAC\Spice Girls - Too Much (CD singles) [FLAC]\Spice Girls - Too Much (UK CD5 #2) (1997) [FLAC]\02 - Too Much (Orchestral Version).wav

Pre-gap length 0:00:01.40

Peak level 98.0 %
Extraction speed 2.6 X
Track quality 100.0 %
Test CRC BBB59189
Copy CRC BBB59189
Track not fully ripped for AccurateRip lookup
Copy OK

Track 3

Filename C:\My Documents\My FLAC\Spice Girls - Too Much (CD singles) [FLAC]\Spice Girls - Too Much (UK CD5 #2) (1997) [FLAC]\03 - Walk Of Life.wav

Pre-gap length 0:00:01.00

Peak level 98.0 %
Extraction speed 2.7 X
Track quality 100.0 %
Test CRC 7731FFAB
Copy CRC 7731FFAB
Accurately ripped (confidence 14) [83EB7B6D] (AR v2)
Copy OK


1 track(s) accurately ripped
2 track(s) not fully ripped for AccurateRip lookup

Some tracks could not be verified as accurate

No errors occurred

End of status report

==== Log checksum 4FBC4E29C7566C9998C7DD545F313DF1C24E57ECB4A6C9B5FDB39B5118E2295E ====


Spice Girls - Too Much (UK/US CD singles) (1997)
NITROFLARE (FLAC)
NITROFLARE (MP3)