Subcategories

Bobby Bush - Songs From Sunday Morning Volume 1 (2006)

Posted By: TestTickles
Bobby Bush - Songs From Sunday Morning Volume 1 (2006)

Bobby Bush - Songs From Sunday Morning Volume 1 (2006)
EAC Rip | FLAC with CUE and log | scans | 394 mb
MP3 CBR 320kbps | RAR | 127 mb
Genre: jazz, gospel jazz, smooth jazz

Songs From Sunday Morning Volume 1 is the 2006 album by Bobby Bush and his cast of friends. It is a gospel album placed in a jazz motif. This is released by Holy Mountain Music.

Bobby Bush - Songs From Sunday Morning Volume 1 (2006)

01. Holy Holy Holy
02. Songs From Sunday Morning
03. Tis So Sweet
04. Swing Low Sweet Chariot
05. What A Friend We Have In Jesus/I Surrender All
06. It Is Well
07. Oh Jerusalem Road
08. Crown Him With Many Crowns
09. Nothing But The Blood
10. The Solid Rock/When We All Get To Heaven
11. Oh Happy Day/Oh How I Love Jesus
12. He Is Amazing
13. Amazing Grace

Produced by Bobby Bush
Recorded & engineered by Geren W. Mortensen, Jr.
Mixdown by Geren W. Mortensen, Jr. & Bobby Bush

EAC extraction logfile from 3. June 2017, 14:38 for CD
Bobby Bush / Songs From Sunday Morning Volume 1

Used drive : TSSTcorpDVD+-RW TS-H653B Adapter: 2 ID: 0
Read mode : Secure with NO C2, accurate stream, disable cache
Read offset correction : 6
Overread into Lead-In and Lead-Out : No

Used output format : Internal WAV Routines
44.100 Hz; 16 Bit; Stereo

Other options :
Fill up missing offset samples with silence : Yes
Delete leading and trailing silent blocks : No
Native Win32 interface for Win NT & 2000


Track 1
Filename C:\Documents and Settings\cuntfist\Desktop\FLAC's\32\Bobby Bush - Songs From Sunday Morning Volume 1 (2006) [FLAC]\01 - Holy Holy Holy.wav

Pre-gap length 0:00:02.00

Peak level 99.8 %
Track quality 100.0 %
Test CRC E5274CA4
Copy CRC E5274CA4
Copy OK

Track 2
Filename C:\Documents and Settings\cuntfist\Desktop\FLAC's\32\Bobby Bush - Songs From Sunday Morning Volume 1 (2006) [FLAC]\02 - Songs From Sunday Morning.wav

Pre-gap length 0:00:01.77

Peak level 78.0 %
Track quality 100.0 %
Test CRC 4E9DD5A0
Copy CRC 4E9DD5A0
Copy OK

Track 3
Filename C:\Documents and Settings\cuntfist\Desktop\FLAC's\32\Bobby Bush - Songs From Sunday Morning Volume 1 (2006) [FLAC]\03 - Tis So Sweet.wav

Pre-gap length 0:00:01.78

Peak level 99.8 %
Track quality 100.0 %
Test CRC 70177C39
Copy CRC 70177C39
Copy OK

Track 4
Filename C:\Documents and Settings\cuntfist\Desktop\FLAC's\32\Bobby Bush - Songs From Sunday Morning Volume 1 (2006) [FLAC]\04 - Swing Low Sweet Chariot.wav

Pre-gap length 0:00:05.14

Peak level 99.8 %
Track quality 100.0 %
Test CRC 581367A8
Copy CRC 581367A8
Copy OK

Track 5
Filename C:\Documents and Settings\cuntfist\Desktop\FLAC's\32\Bobby Bush - Songs From Sunday Morning Volume 1 (2006) [FLAC]\05 - What A Friend We Have In Jesus,I Surrender All.wav

Pre-gap length 0:00:01.77

Peak level 99.8 %
Track quality 99.9 %
Test CRC 6B79FDAB
Copy CRC 6B79FDAB
Copy OK

Track 6
Filename C:\Documents and Settings\cuntfist\Desktop\FLAC's\32\Bobby Bush - Songs From Sunday Morning Volume 1 (2006) [FLAC]\06 - It Is Well.wav

Pre-gap length 0:00:01.78

Peak level 99.8 %
Track quality 100.0 %
Test CRC EFDB7882
Copy CRC EFDB7882
Copy OK

Track 7
Filename C:\Documents and Settings\cuntfist\Desktop\FLAC's\32\Bobby Bush - Songs From Sunday Morning Volume 1 (2006) [FLAC]\07 - Oh Jerusalem Road.wav

Pre-gap length 0:00:01.77

Peak level 99.8 %
Track quality 100.0 %
Test CRC BD393B48
Copy CRC BD393B48
Copy OK

Track 8
Filename C:\Documents and Settings\cuntfist\Desktop\FLAC's\32\Bobby Bush - Songs From Sunday Morning Volume 1 (2006) [FLAC]\08 - Crown Him With Many Crowns.wav

Pre-gap length 0:00:01.78

Peak level 99.8 %
Track quality 100.0 %
Test CRC F8BEE54D
Copy CRC F8BEE54D
Copy OK

Track 9
Filename C:\Documents and Settings\cuntfist\Desktop\FLAC's\32\Bobby Bush - Songs From Sunday Morning Volume 1 (2006) [FLAC]\09 - Nothing But The Blood.wav

Pre-gap length 0:00:01.78

Peak level 99.8 %
Track quality 100.0 %
Test CRC 4498364F
Copy CRC 4498364F
Copy OK

Track 10
Filename C:\Documents and Settings\cuntfist\Desktop\FLAC's\32\Bobby Bush - Songs From Sunday Morning Volume 1 (2006) [FLAC]\10 - The Solid Rock,When We All Get To Heaven.wav

Pre-gap length 0:00:01.77

Peak level 99.8 %
Track quality 100.0 %
Test CRC 17FC9203
Copy CRC 17FC9203
Copy OK

Track 11
Filename C:\Documents and Settings\cuntfist\Desktop\FLAC's\32\Bobby Bush - Songs From Sunday Morning Volume 1 (2006) [FLAC]\11 - Oh Happy Day,Oh How I Love Jesus.wav

Pre-gap length 0:00:01.77

Peak level 99.8 %
Track quality 100.0 %
Test CRC 1CE19DD0
Copy CRC 1CE19DD0
Copy OK

Track 12
Filename C:\Documents and Settings\cuntfist\Desktop\FLAC's\32\Bobby Bush - Songs From Sunday Morning Volume 1 (2006) [FLAC]\12 - He Is Amazing.wav

Pre-gap length 0:00:01.77

Peak level 99.1 %
Track quality 100.0 %
Test CRC 3C192FD9
Copy CRC 3C192FD9
Copy OK

Track 13
Filename C:\Documents and Settings\cuntfist\Desktop\FLAC's\32\Bobby Bush - Songs From Sunday Morning Volume 1 (2006) [FLAC]\13 - Amazing Grace.wav

Pre-gap length 0:00:01.77

Peak level 99.8 %
Track quality 100.0 %
Test CRC 3D7483F0
Copy CRC 3D7483F0
Copy OK

No errors occured


End of status report


Bobby Bush - Songs From Sunday Morning Volume 1 (2006)