Subcategories

Bob Marley (& The Wailers) - The Complete Bob Marley & The Wailers 1967-1972 Parts I, II & III (1998/1999) (3CD/3CD/2CD)

Posted By: TestTickles
Bob Marley (& The Wailers) - The Complete Bob Marley & The Wailers 1967-1972 Parts I, II & III (1998/1999) (3CD/3CD/2CD)

Bob Marley (& The Wailers) - The Complete Bob Marley & The Wailers 1967-1972 Parts I, II & III (1998/1999) (3CD/3CD/2CD)
EAC Rip | FLAC with CUE and log | scans | 736 mb, 970 mb, 709mb
MP3 CBR 320kbps | RAR | 416 mb, 547 mb, 398mb
Genre: reggae

The Complete Bob Marley & The Wailers 1967-1972 is a series of three box sets for reggae legend Bob Marley. Released by JAD in conjunction with Koch International, the first two box sets consist of three discs each while the third and last volume is a 2 CD set, consisting of songs Marley did between 1967 and 1972 before he was signed to Island Records.

Bob Marley (& The Wailers) - The Complete Bob Marley & The Wailers 1967-1972 Parts I, II & III (1998/1999) (3CD/3CD/2CD)

The Complete Bob Marley & The Wailers 1967-1972 (Part I)
Bob Marley (& The Wailers) - The Complete Bob Marley & The Wailers 1967-1972 Parts I, II & III (1998/1999) (3CD/3CD/2CD)

DISC 1 - Rock To The Rock (1968)
01. Rock To The Rock
02. Rocking Steady (Alternate)
03. How Many Times
04. Touch Me
05. Mellow Mood (Alternate)
06. There She Goes
07. Soul Rebel (Original)
08. Put It On (Alternate)
09. Chances Are (Alternate)
10. Love
11. Bend Down Low (Alternate)
12. The World Is Changing
13. Nice Time (Alternate)
14. Treat You Right
15. What Goes Around Comes Around (Original)
16. What Goes Around Comes Around (Version)

Musicians on this album probably include Eric Gale, Bernard Purdie, Chuck Rainey, Richard Tee, and Hugh Masekela except tracks 15 & 16, which feature Aston "Family Man" Barrett, Carlton Barrett, Alva "Reggie" Lewis (or Ranford "Rinnie Bop" Williams) and Glen Adams

Produced by Johnny Nash & Arthur Jenkins, 1968
Arrangements by Arthur Jenkins
Recorded at Dynamic Sounds Studio, Kingston, Jamaica except 15 & 16 at West Indies Studio, Kingston, Jamaica

All tracks are mono except 1-2, 10-11, 13 & 15

Compiled by Roger Steffans & Bruno Baum
Digital restoration & mastering produced by Bruno Baum at Abbey Road Studios with Simon Gibson (engineer), track 15 & 16 at Top Master with Andre Perriat & Didier Marc

###

DISC 2 - Selassie Is The Chapel (1968-1970)
01. Don't Rock My Boat (Original)
Later known as "Satisfy My Soul"
02. The Lord Will Make A Way
03. Chances Are (Original)
04. Selassie Is The Chapel
05. Tread Oh
06. Feel Alright (Original)
07. Rhythm
08. Rocking Steady (Original)
09. Adam And Eve
10. Wisdom
Later known as "Stiff Necked Fools" and "Fools Die"
11. This Train (Alternate)
12. Thank You Lord (Alternate)
13. Give Me A Ticket (Original)
Also known as "The Letter"
14. Trouble On The Road Again
15. Black Progress
Medley: Black Progress/(Say It Loud) I'm Black And I'm Proud
16. Black Progress (Version)
17. Tread Oh (Version)

Players on this album include:
Hugh Malcolm, Carlton Barrett-drums
Jackie Jackson, Lloyd Brevett, Aston "Family Man" Barrett-bass
Hux Brown, Bob Marley, Peter Tosh, Alva "Reggae" Lewis-guitar
Winston Wright, Peter Tosh, Bunny Wailer, Gladstone Anderstone, Glen Adams-keyboards
"Ska" Campbell-baritone sax
Roland Alphonso-tenor sax
Alvin "Seeco" Patterson, Bunny Wailer, Ras Michael, Jeremiah, "Teego", Larry McDonald-percussion

Carlton Lee, Oswald Harvey, Barry Biggs, Buddy Davidson, Errol Thompson-engineers

Track 1-3 produced by The Wailers, 1968
Track 4 produced by Mortimer Planno, 1968
Tracks 5-7 produced by The Wailers, 1969
Track 8 produced by Johnny Nash, Arthur Jenkins, and Danny Sims, 1968
Tracks 9-12 produced by Ted Pouder, 1969
Tracks 13-17 produced by The Wailers, 1970

Compiled by Bruno Baum & Roger Steffans
Digital restoration & mastering produced by Bruno Baum at Abbey Road Studios with Terry Burch & Ron Hill, engineers, except track 14 at Top Master with Christopher Fuchs & Didier Marc, engineers

###

DISC 3 - Best Of The Wailers (1969-1970)
01. Sugar Sugar
02. Stop The Train
03. Cheer Up
04. Soon Come
05. Soul Captives
06. Go Tell It To The Mountain
07. Can't You See (Alternate)
08. Give Me A Ticket (Alternate) (a.k.a. The Letter)
09. Hold On This Feeling
10. Mr. Chatterbox (Alternate) (a.k.a. Mr. Talkative)
11. Soul Shake Down (Version)
12. Soon Come (Version)
13. Mr. Chatterbox (Version)
14. Hold On This Feeling (Version)

Tracks 1-6, 11 & 12 produced by Leslie Kong in 1970 at Dynamic Sounds Studio, Kingston Jamaica
Engineered by Carlton Lee
Mikey "Boo" Richards-drums
Jackie Jackson-bass
Hux Brown, Peter Tosh, Alva "Reggie" Lewis-guitar
Gladdy Anderson-piano
Winston Wright-organ

Tracks 7-8 & 14 produced by The Wailers, Randy's
Engineered by Errol Thompson & Carlton Lee
Carlton Barrett, Hugh Malcolm-drums
Aston "Family Man" Barrett-bass
Alva "Reggie" Lewis, Peter Tosh-guitar
Glen Adams, Gladdy Anderson-keyboards
Lester Sterling-alto sax
"Deadly" Headly Bennett-tenor sax

Tracks 9-10 & 13 produced by Bunny Lee in 1970
Recorded at Randy's Studio, Kingston, Jamaica

All tracks are mono except #13

Compiled by Roger Steffans & Bruno Baum
Digital restoration & mastering produced by Bruno Baum at Abbey Road Studios with Terry Burch, engineer

EAC extraction logfile from 17. June 2007, 14:37 for CD
Bob Marley / The Complete Wailers 1967-1972 Part I (Disc 1)

Used drive : LITE-ON DVDRW SOHW-1633S Adapter: 0 ID: 0
Read mode : Secure with NO C2, accurate stream, disable cache
Read offset correction : 12
Overread into Lead-In and Lead-Out : No

Used output format : Internal WAV Routines
44.100 Hz; 16 Bit; Stereo

Other options :
Fill up missing offset samples with silence : Yes
Delete leading and trailing silent blocks : No
Installed external ASPI interface


Track 1
Filename D:\FLAC\Bob Marley - The Complete Wailers 1967-1972 Part I (1998) (3CD) [FLAC]\Disc 1 - Rock To The Rock\01 - Rock To The Rock.wav

Pre-gap length 0:00:02.00

Peak level 91.5 %
Track quality 100.0 %
Test CRC 97CAF272
Copy CRC 97CAF272
Copy OK

Track 2
Filename D:\FLAC\Bob Marley - The Complete Wailers 1967-1972 Part I (1998) (3CD) [FLAC]\Disc 1 - Rock To The Rock\02 - Rocking Steady (Alternate).wav

Pre-gap length 0:00:01.20

Peak level 95.0 %
Track quality 100.0 %
Test CRC 96D0FDD2
Copy CRC 96D0FDD2
Copy OK

Track 3
Filename D:\FLAC\Bob Marley - The Complete Wailers 1967-1972 Part I (1998) (3CD) [FLAC]\Disc 1 - Rock To The Rock\03 - How Many Times.wav

Pre-gap length 0:00:01.37

Peak level 92.6 %
Track quality 99.9 %
Test CRC 44811A36
Copy CRC 44811A36
Copy OK

Track 4
Filename D:\FLAC\Bob Marley - The Complete Wailers 1967-1972 Part I (1998) (3CD) [FLAC]\Disc 1 - Rock To The Rock\04 - Touch Me.wav

Pre-gap length 0:00:00.44

Peak level 90.5 %
Track quality 99.9 %
Test CRC C83AF9E6
Copy CRC C83AF9E6
Copy OK

Track 5
Filename D:\FLAC\Bob Marley - The Complete Wailers 1967-1972 Part I (1998) (3CD) [FLAC]\Disc 1 - Rock To The Rock\05 - Mellow Mood (Alternate).wav

Pre-gap length 0:00:00.46

Peak level 91.4 %
Track quality 100.0 %
Test CRC FA26C201
Copy CRC FA26C201
Copy OK

Track 6
Filename D:\FLAC\Bob Marley - The Complete Wailers 1967-1972 Part I (1998) (3CD) [FLAC]\Disc 1 - Rock To The Rock\06 - There She Goes.wav

Pre-gap length 0:00:00.62

Peak level 97.7 %
Track quality 100.0 %
Test CRC 45157E2A
Copy CRC 45157E2A
Copy OK

Track 7
Filename D:\FLAC\Bob Marley - The Complete Wailers 1967-1972 Part I (1998) (3CD) [FLAC]\Disc 1 - Rock To The Rock\07 - Soul Rebel (Original).wav

Pre-gap length 0:00:00.60

Peak level 82.9 %
Track quality 99.9 %
Test CRC 7170B4D5
Copy CRC 7170B4D5
Copy OK

Track 8
Filename D:\FLAC\Bob Marley - The Complete Wailers 1967-1972 Part I (1998) (3CD) [FLAC]\Disc 1 - Rock To The Rock\08 - Put It On (Alternate).wav

Pre-gap length 0:00:01.20

Peak level 95.6 %
Track quality 99.9 %
Test CRC CEEC3DF5
Copy CRC CEEC3DF5
Copy OK

Track 9
Filename D:\FLAC\Bob Marley - The Complete Wailers 1967-1972 Part I (1998) (3CD) [FLAC]\Disc 1 - Rock To The Rock\09 - Chances Are (Alternate).wav

Pre-gap length 0:00:00.69

Peak level 90.0 %
Track quality 100.0 %
Test CRC CF651804
Copy CRC CF651804
Copy OK

Track 10
Filename D:\FLAC\Bob Marley - The Complete Wailers 1967-1972 Part I (1998) (3CD) [FLAC]\Disc 1 - Rock To The Rock\10 - Love.wav

Pre-gap length 0:00:00.42

Peak level 77.0 %
Track quality 100.0 %
Test CRC A63A2D9C
Copy CRC A63A2D9C
Copy OK

Track 11
Filename D:\FLAC\Bob Marley - The Complete Wailers 1967-1972 Part I (1998) (3CD) [FLAC]\Disc 1 - Rock To The Rock\11 - Bend Down Low (Alternate).wav

Pre-gap length 0:00:01.09

Peak level 68.3 %
Track quality 100.0 %
Test CRC 4C636929
Copy CRC 4C636929
Copy OK

Track 12
Filename D:\FLAC\Bob Marley - The Complete Wailers 1967-1972 Part I (1998) (3CD) [FLAC]\Disc 1 - Rock To The Rock\12 - The World Is Changing.wav

Pre-gap length 0:00:00.84

Peak level 82.6 %
Track quality 99.9 %
Test CRC 8D90E9B0
Copy CRC 8D90E9B0
Copy OK

Track 13
Filename D:\FLAC\Bob Marley - The Complete Wailers 1967-1972 Part I (1998) (3CD) [FLAC]\Disc 1 - Rock To The Rock\13 - Nice Time (Alternate).wav

Pre-gap length 0:00:00.77

Peak level 70.6 %
Track quality 99.9 %
Test CRC 81518821
Copy CRC 81518821
Copy OK

Track 14
Filename D:\FLAC\Bob Marley - The Complete Wailers 1967-1972 Part I (1998) (3CD) [FLAC]\Disc 1 - Rock To The Rock\14 - Treat You Right.wav

Pre-gap length 0:00:01.00

Peak level 91.4 %
Track quality 100.0 %
Test CRC 97BBEF59
Copy CRC 97BBEF59
Copy OK

Track 15
Filename D:\FLAC\Bob Marley - The Complete Wailers 1967-1972 Part I (1998) (3CD) [FLAC]\Disc 1 - Rock To The Rock\15 - What Goes Around Comes Around (Original).wav

Pre-gap length 0:00:01.09

Peak level 99.5 %
Track quality 100.0 %
Test CRC A5A56C5F
Copy CRC A5A56C5F
Copy OK

Track 16
Filename D:\FLAC\Bob Marley - The Complete Wailers 1967-1972 Part I (1998) (3CD) [FLAC]\Disc 1 - Rock To The Rock\16 - What Goes Around Comes Around (Version).wav

Pre-gap length 0:00:01.22

Peak level 99.4 %
Track quality 99.9 %
Test CRC EF2613E8
Copy CRC EF2613E8
Copy OK

No errors occured


End of status report



EAC extraction logfile from 17. June 2007, 16:14 for CD
Bob Marley / The Complete Wailers 1967-1972 Part I (Disc 2)

Used drive : LITE-ON DVDRW SOHW-1633S Adapter: 0 ID: 0
Read mode : Secure with NO C2, accurate stream, disable cache
Read offset correction : 12
Overread into Lead-In and Lead-Out : No

Used output format : Internal WAV Routines
44.100 Hz; 16 Bit; Stereo

Other options :
Fill up missing offset samples with silence : Yes
Delete leading and trailing silent blocks : No
Installed external ASPI interface


Track 1
Filename D:\FLAC\Bob Marley - The Complete Wailers 1967-1972 Part I (1998) (3CD) [FLAC]\Disc 2 - Selassie Is The Chapel\01 - Don't Rock My Boat (Original).wav

Pre-gap length 0:00:02.00

Peak level 67.1 %
Track quality 100.0 %
Test CRC A0D562BE
Copy CRC A0D562BE
Copy OK

Track 2
Filename D:\FLAC\Bob Marley - The Complete Wailers 1967-1972 Part I (1998) (3CD) [FLAC]\Disc 2 - Selassie Is The Chapel\02 - The Lord Will Make A Way.wav

Pre-gap length 0:00:01.02

Peak level 84.8 %
Track quality 99.9 %
Test CRC BD28B084
Copy CRC BD28B084
Copy OK

Track 3
Filename D:\FLAC\Bob Marley - The Complete Wailers 1967-1972 Part I (1998) (3CD) [FLAC]\Disc 2 - Selassie Is The Chapel\03 - Chances Are (Original).wav

Pre-gap length 0:00:01.04

Peak level 91.8 %
Track quality 100.0 %
Test CRC A3BA2DC3
Copy CRC A3BA2DC3
Copy OK

Track 4
Filename D:\FLAC\Bob Marley - The Complete Wailers 1967-1972 Part I (1998) (3CD) [FLAC]\Disc 2 - Selassie Is The Chapel\04 - Selassie Is The Chapel.wav

Pre-gap length 0:00:01.02

Peak level 81.9 %
Track quality 100.0 %
Test CRC B82385AD
Copy CRC B82385AD
Copy OK

Track 5
Filename D:\FLAC\Bob Marley - The Complete Wailers 1967-1972 Part I (1998) (3CD) [FLAC]\Disc 2 - Selassie Is The Chapel\05 - Tread Oh.wav

Pre-gap length 0:00:01.06

Peak level 83.7 %
Track quality 100.0 %
Test CRC 6BD21501
Copy CRC 6BD21501
Copy OK

Track 6
Filename D:\FLAC\Bob Marley - The Complete Wailers 1967-1972 Part I (1998) (3CD) [FLAC]\Disc 2 - Selassie Is The Chapel\06 - Feel Alright (Original).wav

Pre-gap length 0:00:01.02

Peak level 90.4 %
Track quality 100.0 %
Test CRC 8A2B6E85
Copy CRC 8A2B6E85
Copy OK

Track 7
Filename D:\FLAC\Bob Marley - The Complete Wailers 1967-1972 Part I (1998) (3CD) [FLAC]\Disc 2 - Selassie Is The Chapel\07 - Rhythm.wav

Pre-gap length 0:00:01.04

Peak level 93.6 %
Track quality 100.0 %
Test CRC E4B53FA3
Copy CRC E4B53FA3
Copy OK

Track 8
Filename D:\FLAC\Bob Marley - The Complete Wailers 1967-1972 Part I (1998) (3CD) [FLAC]\Disc 2 - Selassie Is The Chapel\08 - Rocking Steady (Original).wav

Pre-gap length 0:00:01.06

Peak level 88.8 %
Track quality 100.0 %
Test CRC B041AEE3
Copy CRC B041AEE3
Copy OK

Track 9
Filename D:\FLAC\Bob Marley - The Complete Wailers 1967-1972 Part I (1998) (3CD) [FLAC]\Disc 2 - Selassie Is The Chapel\09 - Adam And Eve.wav

Pre-gap length 0:00:01.04

Peak level 85.2 %
Track quality 100.0 %
Test CRC 731C93E5
Copy CRC 731C93E5
Copy OK

Track 10
Filename D:\FLAC\Bob Marley - The Complete Wailers 1967-1972 Part I (1998) (3CD) [FLAC]\Disc 2 - Selassie Is The Chapel\10 - Wisdom.wav

Pre-gap length 0:00:01.02

Peak level 93.9 %
Track quality 99.9 %
Test CRC C43FB6F8
Copy CRC C43FB6F8
Copy OK

Track 11
Filename D:\FLAC\Bob Marley - The Complete Wailers 1967-1972 Part I (1998) (3CD) [FLAC]\Disc 2 - Selassie Is The Chapel\11 - This Train (Alternate).wav

Pre-gap length 0:00:01.04

Peak level 97.3 %
Track quality 100.0 %
Test CRC 649B87EA
Copy CRC 649B87EA
Copy OK

Track 12
Filename D:\FLAC\Bob Marley - The Complete Wailers 1967-1972 Part I (1998) (3CD) [FLAC]\Disc 2 - Selassie Is The Chapel\12 - Thank You Lord (Alternate).wav

Pre-gap length 0:00:01.04

Peak level 97.2 %
Track quality 100.0 %
Test CRC A2C781A9
Copy CRC A2C781A9
Copy OK

Track 13
Filename D:\FLAC\Bob Marley - The Complete Wailers 1967-1972 Part I (1998) (3CD) [FLAC]\Disc 2 - Selassie Is The Chapel\13 - Give Me A Ticket (Original).wav

Pre-gap length 0:00:01.02

Peak level 99.7 %
Track quality 100.0 %
Test CRC AB80764A
Copy CRC AB80764A
Copy OK

Track 14
Filename D:\FLAC\Bob Marley - The Complete Wailers 1967-1972 Part I (1998) (3CD) [FLAC]\Disc 2 - Selassie Is The Chapel\14 - Trouble On The Road Again.wav

Pre-gap length 0:00:01.04

Peak level 98.8 %
Track quality 100.0 %
Test CRC 5858EC9E
Copy CRC 5858EC9E
Copy OK

Track 15
Filename D:\FLAC\Bob Marley - The Complete Wailers 1967-1972 Part I (1998) (3CD) [FLAC]\Disc 2 - Selassie Is The Chapel\15 - Black Progress.wav

Pre-gap length 0:00:01.04

Peak level 94.3 %
Track quality 100.0 %
Test CRC 0659D1B6
Copy CRC 0659D1B6
Copy OK

Track 16
Filename D:\FLAC\Bob Marley - The Complete Wailers 1967-1972 Part I (1998) (3CD) [FLAC]\Disc 2 - Selassie Is The Chapel\16 - Black Progress (Version).wav

Pre-gap length 0:00:01.02

Peak level 88.5 %
Track quality 100.0 %
Test CRC BFEE66DF
Copy CRC BFEE66DF
Copy OK

Track 17
Filename D:\FLAC\Bob Marley - The Complete Wailers 1967-1972 Part I (1998) (3CD) [FLAC]\Disc 2 - Selassie Is The Chapel\17 - Tread Oh (Version).wav

Pre-gap length 0:00:01.06

Peak level 72.6 %
Track quality 100.0 %
Test CRC 3C710F6C
Copy CRC 3C710F6C
Copy OK

No errors occured


End of status report



EAC extraction logfile from 18. June 2007, 5:18 for CD
Bob Marley / The Complete Wailers 1967-1972 Part I (Disc 3)

Used drive : LITE-ON DVDRW SOHW-1633S Adapter: 0 ID: 0
Read mode : Secure with NO C2, accurate stream, disable cache
Read offset correction : 12
Overread into Lead-In and Lead-Out : No

Used output format : Internal WAV Routines
44.100 Hz; 16 Bit; Stereo

Other options :
Fill up missing offset samples with silence : Yes
Delete leading and trailing silent blocks : No
Installed external ASPI interface


Track 1
Filename D:\FLAC\Bob Marley - The Complete Wailers 1967-1972 Part I (1998) (3CD) [FLAC]\Disc 3 - Best Of The Wailers\01 - Sugar Sugar.wav

Pre-gap length 0:00:02.00

Peak level 90.3 %
Track quality 100.0 %
Test CRC AD0C01C2
Copy CRC AD0C01C2
Copy OK

Track 2
Filename D:\FLAC\Bob Marley - The Complete Wailers 1967-1972 Part I (1998) (3CD) [FLAC]\Disc 3 - Best Of The Wailers\02 - Stop The Train.wav

Pre-gap length 0:00:01.05

Peak level 80.3 %
Track quality 100.0 %
Test CRC C6F8599A
Copy CRC C6F8599A
Copy OK

Track 3
Filename D:\FLAC\Bob Marley - The Complete Wailers 1967-1972 Part I (1998) (3CD) [FLAC]\Disc 3 - Best Of The Wailers\03 - Cheer Up.wav

Pre-gap length 0:00:01.06

Peak level 81.9 %
Track quality 100.0 %
Test CRC 21A36BF2
Copy CRC 21A36BF2
Copy OK

Track 4
Filename D:\FLAC\Bob Marley - The Complete Wailers 1967-1972 Part I (1998) (3CD) [FLAC]\Disc 3 - Best Of The Wailers\04 - Soon Come.wav

Pre-gap length 0:00:01.05

Peak level 90.9 %
Track quality 100.0 %
Test CRC 9398CD83
Copy CRC 9398CD83
Copy OK

Track 5
Filename D:\FLAC\Bob Marley - The Complete Wailers 1967-1972 Part I (1998) (3CD) [FLAC]\Disc 3 - Best Of The Wailers\05 - Soul Captives.wav

Pre-gap length 0:00:01.06

Peak level 97.7 %
Track quality 100.0 %
Test CRC AAEE17AB
Copy CRC AAEE17AB
Copy OK

Track 6
Filename D:\FLAC\Bob Marley - The Complete Wailers 1967-1972 Part I (1998) (3CD) [FLAC]\Disc 3 - Best Of The Wailers\06 - Go Tell It To The Mountain.wav

Pre-gap length 0:00:01.06

Peak level 98.0 %
Track quality 100.0 %
Test CRC 3B89E5F1
Copy CRC 3B89E5F1
Copy OK

Track 7
Filename D:\FLAC\Bob Marley - The Complete Wailers 1967-1972 Part I (1998) (3CD) [FLAC]\Disc 3 - Best Of The Wailers\07 - Can't You See (Alternate).wav

Pre-gap length 0:00:01.06

Peak level 90.0 %
Track quality 100.0 %
Test CRC B8975CF8
Copy CRC B8975CF8
Copy OK

Track 8
Filename D:\FLAC\Bob Marley - The Complete Wailers 1967-1972 Part I (1998) (3CD) [FLAC]\Disc 3 - Best Of The Wailers\08 - Give Me A Ticket (Alternate) (A.K.A. The Letter).wav

Pre-gap length 0:00:01.05

Peak level 82.2 %
Track quality 100.0 %
Test CRC 15E1F79E
Copy CRC 15E1F79E
Copy OK

Track 9
Filename D:\FLAC\Bob Marley - The Complete Wailers 1967-1972 Part I (1998) (3CD) [FLAC]\Disc 3 - Best Of The Wailers\09 - Hold On This Feeling.wav

Pre-gap length 0:00:01.06

Peak level 91.1 %
Track quality 100.0 %
Test CRC 6E8B1C33
Copy CRC 6E8B1C33
Copy OK

Track 10
Filename D:\FLAC\Bob Marley - The Complete Wailers 1967-1972 Part I (1998) (3CD) [FLAC]\Disc 3 - Best Of The Wailers\10 - Mr. Chatterbox (Alternate) (A.K.A. Mr. Talkative).wav

Pre-gap length 0:00:01.06

Peak level 95.0 %
Track quality 100.0 %
Test CRC 73D912C1
Copy CRC 73D912C1
Copy OK

Track 11
Filename D:\FLAC\Bob Marley - The Complete Wailers 1967-1972 Part I (1998) (3CD) [FLAC]\Disc 3 - Best Of The Wailers\11 - Soul Shake Down (Version).wav

Pre-gap length 0:00:01.05

Peak level 91.9 %
Track quality 100.0 %
Test CRC A673B656
Copy CRC A673B656
Copy OK

Track 12
Filename D:\FLAC\Bob Marley - The Complete Wailers 1967-1972 Part I (1998) (3CD) [FLAC]\Disc 3 - Best Of The Wailers\12 - Soon Come (Version).wav

Pre-gap length 0:00:01.05

Peak level 87.8 %
Track quality 100.0 %
Test CRC 37CF74D2
Copy CRC 37CF74D2
Copy OK

Track 13
Filename D:\FLAC\Bob Marley - The Complete Wailers 1967-1972 Part I (1998) (3CD) [FLAC]\Disc 3 - Best Of The Wailers\13 - Mr. Chatterbox (Version).wav

Pre-gap length 0:00:01.06

Peak level 98.3 %
Track quality 100.0 %
Test CRC E54D23BC
Copy CRC E54D23BC
Copy OK

Track 14
Filename D:\FLAC\Bob Marley - The Complete Wailers 1967-1972 Part I (1998) (3CD) [FLAC]\Disc 3 - Best Of The Wailers\14 - Hold On This Feeling (Version).wav

Pre-gap length 0:00:01.05

Peak level 83.9 %
Track quality 100.0 %
Test CRC E2463B57
Copy CRC E2463B57
Copy OK

No errors occured


End of status report


===
Bob Marley (& The Wailers) - The Complete Bob Marley & The Wailers 1967-1972 Parts I, II & III (1998/1999) (3CD/3CD/2CD)

The Complete Bob Marley & The Wailers 1967-1972 (Part II)
Bob Marley (& The Wailers) - The Complete Bob Marley & The Wailers 1967-1972 Parts I, II & III (1998/1999) (3CD/3CD/2CD)

DISC 1 - Soul Rebels
01. Try Me
02. It's Alright
03. No Sympathy
04. My Cup (a.k.a. "I Have To Cry, Cry, Cry")
05. Soul Almighty
06. Rebel's Hop (Medley: I'll Keep On Moving, Cloud Nine, Rebel's Hop)
07. Corner Stone
08. Four Hundred Years
09. No Water
10. Reaction
11. My Sympathy ("Four Hundred Years" Version)
12. Soul Rebel (Version)
13. Try Me (Version)
14. It's Alright (Version)
15. No Sympathy (Version)
16. My Cup (Version)
17. Soul Almighty (Version)
18. Rebel's Hop (Version)
19. Corner Stone (Version)
20. No Water (Version) (False Start)
21. No Water (Version)
22. Reaction (Version)
23. Rebel Version) (a.k.a. "Soul Rebel (Version 2)")


THE UPSETTERS
Carlton "Carly" Barrett-drums
Lloyd Parks, Aston "Family Man" Barrett-bass
Alva "Reggie" Lewis-rhythm guitar
Ranford "Rannie Bop" Williams-lead guitar
Glen Adams-keyboards
Uziah "Sticky" Thompson-percussion

Produced by Lee Perry, 1970
All tracks recorded at Dynamic Studio & Randy's Studio 17, Kingston, Jamaica
Engineer: Errol Thompson

All tracks are mono except 12-17, 19-23

Compiled by Bruno Blum & Roger Steffens
Digital restoration & mastering produced by Bruno Blum at Abbey Road Studios with Terry Burch, engineer

###

DISC 2 - Soul Revolution Part II
01. Keep On Moving (Original) (a.k.a. "I Gotta Keep On Moving")
02. Put It On (Alternate)
03. Fussing And Fighting
04. Memphis
05. Riding High
06. Kaya (Original)
07. African Herbsman
08. Stand Alone
09. Brain Washing
10. Keep On Moving (Version)
11. Don't Rock My Boat (Version)
12. Fussing And Fighting (Version)
13. Put It On (Version)
14. Duppy Version ("Duppy Conqueror" Version)
15. Memphis (Version)
16. Riding High (Version)
17. Kaya (Version 1)
18. African Herbsman (Version)
19. Stand Alone (Version)
20. Sun Is Shining (Version)
21. Brain Washing (Version)


Carlton "Carly" Barrett, Hugh Malcolm-drums
Aston "Family Man" Barrett-bass
Alva "Reggie" Lewis, Ranford "Rannie Bop" William-guitars
Glen Adams, Peter Tosh, Winston Wright, Tyrone Downie-keyboards
Uziah "Sticky" Thompson-percussion

Produced by Lee Perry, 1970-1971
All tracks recorded at Dynamic Studio & Randy's Studio 17, Kingston, Jamaica
Engineers: Carlton Lee, Errol Thompson

Tracks 1-9 previously unreleased stereo mix, 10-21 mono

Compiled by Bruno Blum & Roger Steffens
Digital restoration & mastering produced by Bruno Blum at Abbey Road Studios with Terry Burch and Ron Hill, engineers

###

DISC 3 - More Axe
01. Kaya (Alternate)
02. Love Light (Original)
03. Second Hand (Original)
04. Jah Is Mighty ("Corner Stone" Alternate)
05. Run For Cover ("Soul Rebel" Alternate)
06. Man To Man (Original)
07. Downpresser
08. Don't Rock My Boat (Alternate 2)
09. More Axe ("Small Axe" Alternate)
10. Long Long Winter
11. All In One (Original)
12. Turn Me Loose ("Kaya" Alternate)
13. Kaya (Version 2) (Scat Mix)
14. Battle Axe (Version) ("Small Axe" Version)
15. Long Long Winter (Version)
16. Second Hand (Version)
17. Downpresser (Version)
18. Shocks Of Mighty ("Soul Almighty" Version featuring Lee Perry)
19. Axe Man ("Small Axe" Binghi Version)
20. Nicoteen ("Man To Man" Version)

THE UPSETTERS
Carlton "Carly" Barrett-drums
Aston "Family Man" Barrett-bass
Alva "Reggie" Lewis, Ranford "Rannie Bop" William-guitars
Glen Adams, Gladdy Anderson-keyboards
Tommy McCook-tenor sax
Val "Deadly Headley" Bennett-alto sax
Uziah "Sticky" Thompson-percussion

Produced by Lee Perry, 1970-1971
All tracks recorded at Dynamic Studio & Randy's Studio 17, Kingston, Jamaica
Engineers: Carlton Lee, Errol Thompson

Track 1 previously unreleased
Tracks 5, 7, 17 & 19 previously unreleased outside of Jamaica
All tracks mono except track 13, previously unreleased stereo mix

Compiled by Bruno Blum & Roger Steffens
Digital restoration & mastering produced by Bruno Blum at Abbey Road Studios with Peter Mew and Paul Bailey, engineers


EAC extraction logfile from 18. June 2007, 11:41 for CD
Bob Marley & The Wailers / The Complete Bob Marley & The Wailers 1967-1972 Part II (Disc 1)

Used drive : LITE-ON DVDRW SOHW-1633S Adapter: 0 ID: 0
Read mode : Secure with NO C2, accurate stream, disable cache
Read offset correction : 12
Overread into Lead-In and Lead-Out : No

Used output format : Internal WAV Routines
44.100 Hz; 16 Bit; Stereo

Other options :
Fill up missing offset samples with silence : Yes
Delete leading and trailing silent blocks : No
Installed external ASPI interface


Track 1
Filename D:\FLAC\Bob Marley & The Wailers - The Complete Bob Marley & The Wailers 1967-1972 Part II (1998) (3CD) [FLAC]\Disc 1 - Soul Rebels\01 - Try Me.wav

Pre-gap length 0:00:02.00

Peak level 99.5 %
Track quality 99.9 %
Test CRC 5DB3E05C
Copy CRC 5DB3E05C
Copy OK

Track 2
Filename D:\FLAC\Bob Marley & The Wailers - The Complete Bob Marley & The Wailers 1967-1972 Part II (1998) (3CD) [FLAC]\Disc 1 - Soul Rebels\02 - It's Alright.wav

Pre-gap length 0:00:01.04

Peak level 99.4 %
Track quality 100.0 %
Test CRC A998A242
Copy CRC A998A242
Copy OK

Track 3
Filename D:\FLAC\Bob Marley & The Wailers - The Complete Bob Marley & The Wailers 1967-1972 Part II (1998) (3CD) [FLAC]\Disc 1 - Soul Rebels\03 - No Sympathy.wav

Pre-gap length 0:00:01.02

Peak level 99.4 %
Track quality 100.0 %
Test CRC E2F53E07
Copy CRC E2F53E07
Copy OK

Track 4
Filename D:\FLAC\Bob Marley & The Wailers - The Complete Bob Marley & The Wailers 1967-1972 Part II (1998) (3CD) [FLAC]\Disc 1 - Soul Rebels\04 - My Cup (a.k.a. ''I Have To Cry, Cry, Cry'').wav

Pre-gap length 0:00:01.04

Peak level 99.1 %
Track quality 100.0 %
Test CRC CD5BA6A3
Copy CRC CD5BA6A3
Copy OK

Track 5
Filename D:\FLAC\Bob Marley & The Wailers - The Complete Bob Marley & The Wailers 1967-1972 Part II (1998) (3CD) [FLAC]\Disc 1 - Soul Rebels\05 - Soul Almighty.wav

Pre-gap length 0:00:01.04

Peak level 96.3 %
Track quality 100.0 %
Test CRC 3BE1B8FA
Copy CRC 3BE1B8FA
Copy OK

Track 6
Filename D:\FLAC\Bob Marley & The Wailers - The Complete Bob Marley & The Wailers 1967-1972 Part II (1998) (3CD) [FLAC]\Disc 1 - Soul Rebels\06 - Rebel's Hop (Medley).wav

Pre-gap length 0:00:01.04

Peak level 87.8 %
Track quality 100.0 %
Test CRC B3CCF843
Copy CRC B3CCF843
Copy OK

Track 7
Filename D:\FLAC\Bob Marley & The Wailers - The Complete Bob Marley & The Wailers 1967-1972 Part II (1998) (3CD) [FLAC]\Disc 1 - Soul Rebels\07 - Corner Stone.wav

Pre-gap length 0:00:01.02

Peak level 98.7 %
Track quality 100.0 %
Test CRC BBC65043
Copy CRC BBC65043
Copy OK

Track 8
Filename D:\FLAC\Bob Marley & The Wailers - The Complete Bob Marley & The Wailers 1967-1972 Part II (1998) (3CD) [FLAC]\Disc 1 - Soul Rebels\08 - Four Hundred Years.wav

Pre-gap length 0:00:01.05

Peak level 95.3 %
Track quality 100.0 %
Test CRC 87CE95A3
Copy CRC 87CE95A3
Copy OK

Track 9
Filename D:\FLAC\Bob Marley & The Wailers - The Complete Bob Marley & The Wailers 1967-1972 Part II (1998) (3CD) [FLAC]\Disc 1 - Soul Rebels\09 - No Water.wav

Pre-gap length 0:00:01.02

Peak level 98.9 %
Track quality 100.0 %
Test CRC 37472E6D
Copy CRC 37472E6D
Copy OK

Track 10
Filename D:\FLAC\Bob Marley & The Wailers - The Complete Bob Marley & The Wailers 1967-1972 Part II (1998) (3CD) [FLAC]\Disc 1 - Soul Rebels\10 - Reaction.wav

Pre-gap length 0:00:01.04

Peak level 99.0 %
Track quality 100.0 %
Test CRC 7505038B
Copy CRC 7505038B
Copy OK

Track 11
Filename D:\FLAC\Bob Marley & The Wailers - The Complete Bob Marley & The Wailers 1967-1972 Part II (1998) (3CD) [FLAC]\Disc 1 - Soul Rebels\11 - My Sympathy (''Four Hundred Years'' Version).wav

Pre-gap length 0:00:01.02

Peak level 76.9 %
Track quality 99.9 %
Test CRC 8DB29B2F
Copy CRC 8DB29B2F
Copy OK

Track 12
Filename D:\FLAC\Bob Marley & The Wailers - The Complete Bob Marley & The Wailers 1967-1972 Part II (1998) (3CD) [FLAC]\Disc 1 - Soul Rebels\12 - Soul Rebel (Version).wav

Pre-gap length 0:00:01.04

Peak level 67.4 %
Track quality 100.0 %
Test CRC E0D5841E
Copy CRC E0D5841E
Copy OK

Track 13
Filename D:\FLAC\Bob Marley & The Wailers - The Complete Bob Marley & The Wailers 1967-1972 Part II (1998) (3CD) [FLAC]\Disc 1 - Soul Rebels\13 - Try Me (Version).wav

Pre-gap length 0:00:01.04

Peak level 65.8 %
Track quality 100.0 %
Test CRC 9456CF59
Copy CRC 9456CF59
Copy OK

Track 14
Filename D:\FLAC\Bob Marley & The Wailers - The Complete Bob Marley & The Wailers 1967-1972 Part II (1998) (3CD) [FLAC]\Disc 1 - Soul Rebels\14 - It's Alright (Version).wav

Pre-gap length 0:00:01.02

Peak level 76.2 %
Track quality 100.0 %
Test CRC B8D7BEFA
Copy CRC B8D7BEFA
Copy OK

Track 15
Filename D:\FLAC\Bob Marley & The Wailers - The Complete Bob Marley & The Wailers 1967-1972 Part II (1998) (3CD) [FLAC]\Disc 1 - Soul Rebels\15 - No Sympathy (Version).wav

Pre-gap length 0:00:01.02

Peak level 65.2 %
Track quality 100.0 %
Test CRC B80418B6
Copy CRC B80418B6
Copy OK

Track 16
Filename D:\FLAC\Bob Marley & The Wailers - The Complete Bob Marley & The Wailers 1967-1972 Part II (1998) (3CD) [FLAC]\Disc 1 - Soul Rebels\16 - My Cup (Version).wav

Pre-gap length 0:00:01.02

Peak level 71.7 %
Track quality 99.9 %
Test CRC E9AE8A51
Copy CRC E9AE8A51
Copy OK

Track 17
Filename D:\FLAC\Bob Marley & The Wailers - The Complete Bob Marley & The Wailers 1967-1972 Part II (1998) (3CD) [FLAC]\Disc 1 - Soul Rebels\17 - Soul Almighty (Version).wav

Pre-gap length 0:00:01.02

Peak level 71.6 %
Track quality 100.0 %
Test CRC 56E00E15
Copy CRC 56E00E15
Copy OK

Track 18
Filename D:\FLAC\Bob Marley & The Wailers - The Complete Bob Marley & The Wailers 1967-1972 Part II (1998) (3CD) [FLAC]\Disc 1 - Soul Rebels\18 - Rebel's Hop (Version).wav

Pre-gap length 0:00:01.04

Peak level 66.8 %
Track quality 100.0 %
Test CRC E4BE7C9C
Copy CRC E4BE7C9C
Copy OK

Track 19
Filename D:\FLAC\Bob Marley & The Wailers - The Complete Bob Marley & The Wailers 1967-1972 Part II (1998) (3CD) [FLAC]\Disc 1 - Soul Rebels\19 - Corner Stone (Version).wav

Pre-gap length 0:00:01.04

Peak level 73.3 %
Track quality 100.0 %
Test CRC E4C7F03D
Copy CRC E4C7F03D
Copy OK

Track 20
Filename D:\FLAC\Bob Marley & The Wailers - The Complete Bob Marley & The Wailers 1967-1972 Part II (1998) (3CD) [FLAC]\Disc 1 - Soul Rebels\20 - No Water (Version) (False Start).wav

Pre-gap length 0:00:01.02

Peak level 70.0 %
Track quality 100.0 %
Test CRC 54F0011B
Copy CRC 54F0011B
Copy OK

Track 21
Filename D:\FLAC\Bob Marley & The Wailers - The Complete Bob Marley & The Wailers 1967-1972 Part II (1998) (3CD) [FLAC]\Disc 1 - Soul Rebels\21 - No Water (Version).wav

Peak level 72.7 %
Track quality 100.0 %
Test CRC 9A3B5310
Copy CRC 9A3B5310
Copy OK

Track 22
Filename D:\FLAC\Bob Marley & The Wailers - The Complete Bob Marley & The Wailers 1967-1972 Part II (1998) (3CD) [FLAC]\Disc 1 - Soul Rebels\22 - Reaction (Version).wav

Pre-gap length 0:00:01.04

Peak level 70.0 %
Track quality 99.9 %
Test CRC F157EC14
Copy CRC F157EC14
Copy OK

Track 23
Filename D:\FLAC\Bob Marley & The Wailers - The Complete Bob Marley & The Wailers 1967-1972 Part II (1998) (3CD) [FLAC]\Disc 1 - Soul Rebels\23 - Rebel Version) (a.k.a. ''Soul Rebel (Version 2)'').wav

Pre-gap length 0:00:01.04

Peak level 68.6 %
Track quality 100.0 %
Test CRC 1C785E4D
Copy CRC 1C785E4D
Copy OK

No errors occured


End of status report



EAC extraction logfile from 18. June 2007, 16:06 for CD
Bob Marley & The Wailers / The Complete Bob Marley & The Wailers 1967-1972 Part II (Disc 2)

Used drive : LITE-ON DVDRW SOHW-1633S Adapter: 0 ID: 0
Read mode : Secure with NO C2, accurate stream, disable cache
Read offset correction : 12
Overread into Lead-In and Lead-Out : No

Used output format : Internal WAV Routines
44.100 Hz; 16 Bit; Stereo

Other options :
Fill up missing offset samples with silence : Yes
Delete leading and trailing silent blocks : No
Installed external ASPI interface


Track 1
Filename D:\FLAC\Bob Marley & The Wailers - The Complete Bob Marley & The Wailers 1967-1972 Part II (1998) (3CD) [FLAC]\Disc 2 - Soul Revolution Part II\01 - Keep On Moving (Original) (a.k.a. ''I Gotta Keep On Moving'').wav

Pre-gap length 0:00:02.00

Peak level 99.2 %
Track quality 99.9 %
Test CRC A27C39ED
Copy CRC A27C39ED
Copy OK

Track 2
Filename D:\FLAC\Bob Marley & The Wailers - The Complete Bob Marley & The Wailers 1967-1972 Part II (1998) (3CD) [FLAC]\Disc 2 - Soul Revolution Part II\02 - Put It On (Alternate).wav

Pre-gap length 0:00:01.02

Peak level 97.2 %
Track quality 100.0 %
Test CRC D837FBF3
Copy CRC D837FBF3
Copy OK

Track 3
Filename D:\FLAC\Bob Marley & The Wailers - The Complete Bob Marley & The Wailers 1967-1972 Part II (1998) (3CD) [FLAC]\Disc 2 - Soul Revolution Part II\03 - Fussing And Fighting.wav

Pre-gap length 0:00:01.02

Peak level 99.4 %
Track quality 100.0 %
Test CRC 9BAF5A59
Copy CRC 9BAF5A59
Copy OK

Track 4
Filename D:\FLAC\Bob Marley & The Wailers - The Complete Bob Marley & The Wailers 1967-1972 Part II (1998) (3CD) [FLAC]\Disc 2 - Soul Revolution Part II\04 - Memphis.wav

Pre-gap length 0:00:01.04

Peak level 95.1 %
Track quality 100.0 %
Test CRC 7D48B1D6
Copy CRC 7D48B1D6
Copy OK

Track 5
Filename D:\FLAC\Bob Marley & The Wailers - The Complete Bob Marley & The Wailers 1967-1972 Part II (1998) (3CD) [FLAC]\Disc 2 - Soul Revolution Part II\05 - Riding High.wav

Pre-gap length 0:00:01.04

Peak level 97.5 %
Track quality 100.0 %
Test CRC C1993E0B
Copy CRC C1993E0B
Copy OK

Track 6
Filename D:\FLAC\Bob Marley & The Wailers - The Complete Bob Marley & The Wailers 1967-1972 Part II (1998) (3CD) [FLAC]\Disc 2 - Soul Revolution Part II\06 - Kaya (Original).wav

Pre-gap length 0:00:01.02

Peak level 95.5 %
Track quality 99.9 %
Test CRC 553F18E6
Copy CRC 553F18E6
Copy OK

Track 7
Filename D:\FLAC\Bob Marley & The Wailers - The Complete Bob Marley & The Wailers 1967-1972 Part II (1998) (3CD) [FLAC]\Disc 2 - Soul Revolution Part II\07 - African Herbsman.wav

Pre-gap length 0:00:01.04

Peak level 99.8 %
Track quality 100.0 %
Test CRC 61E5CE9D
Copy CRC 61E5CE9D
Copy OK

Track 8
Filename D:\FLAC\Bob Marley & The Wailers - The Complete Bob Marley & The Wailers 1967-1972 Part II (1998) (3CD) [FLAC]\Disc 2 - Soul Revolution Part II\08 - Stand Alone.wav

Pre-gap length 0:00:01.02

Peak level 91.3 %
Track quality 100.0 %
Test CRC 9864E9A0
Copy CRC 9864E9A0
Copy OK

Track 9
Filename D:\FLAC\Bob Marley & The Wailers - The Complete Bob Marley & The Wailers 1967-1972 Part II (1998) (3CD) [FLAC]\Disc 2 - Soul Revolution Part II\09 - Brain Washing.wav

Pre-gap length 0:00:01.02

Peak level 88.2 %
Track quality 100.0 %
Test CRC AA4C6869
Copy CRC AA4C6869
Copy OK

Track 10
Filename D:\FLAC\Bob Marley & The Wailers - The Complete Bob Marley & The Wailers 1967-1972 Part II (1998) (3CD) [FLAC]\Disc 2 - Soul Revolution Part II\10 - Keep On Moving (Version).wav

Pre-gap length 0:00:01.06

Peak level 76.2 %
Track quality 100.0 %
Test CRC 487294C9
Copy CRC 487294C9
Copy OK

Track 11
Filename D:\FLAC\Bob Marley & The Wailers - The Complete Bob Marley & The Wailers 1967-1972 Part II (1998) (3CD) [FLAC]\\Disc 2 - Soul Revolution Part II\11 - Don't Rock My Boat (Version).wav

Pre-gap length 0:00:01.02

Peak level 83.8 %
Track quality 100.0 %
Test CRC 0B830497
Copy CRC 0B830497
Copy OK

Track 12
Filename D:\FLAC\Bob Marley & The Wailers - The Complete Bob Marley & The Wailers 1967-1972 Part II (1998) (3CD) [FLAC]\Disc 2 - Soul Revolution Part II\12 - Fussing And Fighting (Version).wav

Pre-gap length 0:00:01.04

Peak level 83.7 %
Track quality 100.0 %
Test CRC BFB513F0
Copy CRC BFB513F0
Copy OK

Track 13
Filename D:\FLAC\Bob Marley & The Wailers - The Complete Bob Marley & The Wailers 1967-1972 Part II (1998) (3CD) [FLAC]\Disc 2 - Soul Revolution Part II\13 - Put It On (Version).wav

Pre-gap length 0:00:01.06

Peak level 81.2 %
Track quality 99.9 %
Test CRC BD452734
Copy CRC BD452734
Copy OK

Track 14
Filename D:\FLAC\Bob Marley & The Wailers - The Complete Bob Marley & The Wailers 1967-1972 Part II (1998) (3CD) [FLAC]\Disc 2 - Soul Revolution Part II\14 - Duppy Version (''Duppy Conqueror'' Version).wav

Pre-gap length 0:00:01.02

Peak level 83.5 %
Track quality 100.0 %
Test CRC 2ED0F9B2
Copy CRC 2ED0F9B2
Copy OK

Track 15
Filename D:\FLAC\Bob Marley & The Wailers - The Complete Bob Marley & The Wailers 1967-1972 Part II (1998) (3CD) [FLAC]\Disc 2 - Soul Revolution Part II\15 - Memphis (Version).wav

Pre-gap length 0:00:01.04

Peak level 79.9 %
Track quality 100.0 %
Test CRC 92A0CEFC
Copy CRC 92A0CEFC
Copy OK

Track 16
Filename D:\FLAC\Bob Marley & The Wailers - The Complete Bob Marley & The Wailers 1967-1972 Part II (1998) (3CD) [FLAC]\Disc 2 - Soul Revolution Part II\16 - Riding High (Version).wav

Pre-gap length 0:00:01.02

Peak level 83.5 %
Track quality 100.0 %
Test CRC E5428350
Copy CRC E5428350
Copy OK

Track 17
Filename D:\FLAC\Bob Marley & The Wailers - The Complete Bob Marley & The Wailers 1967-1972 Part II (1998) (3CD) [FLAC]\Disc 2 - Soul Revolution Part II\17 - Kaya (Version 1).wav

Pre-gap length 0:00:01.04

Peak level 81.8 %
Track quality 99.9 %
Test CRC 06E361C8
Copy CRC 06E361C8
Copy OK

Track 18
Filename D:\FLAC\Bob Marley & The Wailers - The Complete Bob Marley & The Wailers 1967-1972 Part II (1998) (3CD) [FLAC]\Disc 2 - Soul Revolution Part II\18 - African Herbsman (Version).wav

Pre-gap length 0:00:01.04

Peak level 87.2 %
Track quality 100.0 %
Test CRC D318FAF1
Copy CRC D318FAF1
Copy OK

Track 19
Filename D:\FLAC\Bob Marley & The Wailers - The Complete Bob Marley & The Wailers 1967-1972 Part II (1998) (3CD) [FLAC]\Disc 2 - Soul Revolution Part II\19 - Stand Alone (Version).wav

Pre-gap length 0:00:01.02

Peak level 84.4 %
Track quality 100.0 %
Test CRC 0D3651FF
Copy CRC 0D3651FF
Copy OK

Track 20
Filename D:\FLAC\Bob Marley & The Wailers - The Complete Bob Marley & The Wailers 1967-1972 Part II (1998) (3CD) [FLAC]\Disc 2 - Soul Revolution Part II\20 - Sun Is Shining (Version).wav

Pre-gap length 0:00:01.04

Peak level 81.5 %
Track quality 100.0 %
Test CRC 93B2AD50
Copy CRC 93B2AD50
Copy OK


Track 21
Filename D:\FLAC\Bob Marley & The Wailers - The Complete Bob Marley & The Wailers 1967-1972 Part II (1998) (3CD) [FLAC]\Disc 2 - Soul Revolution Part II\21 - Brain Washing (Version).wav

Pre-gap length 0:00:01.02

Peak level 83.3 %
Track quality 99.8 %
Test CRC D15AD27E
Copy CRC D15AD27E
Copy OK

No errors occured


End of status report



EAC extraction logfile from 19. June 2007, 5:16 for CD
Bob Marley & The Wailers / The Complete Bob Marley & The Wailers · 1967-1972 Part II (Disc 3)

Used drive : LITE-ON DVDRW SOHW-1633S Adapter: 0 ID: 0
Read mode : Secure with NO C2, accurate stream, disable cache
Read offset correction : 12
Overread into Lead-In and Lead-Out : No

Used output format : Internal WAV Routines
44.100 Hz; 16 Bit; Stereo

Other options :
Fill up missing offset samples with silence : Yes
Delete leading and trailing silent blocks : No
Installed external ASPI interface


Track 1
Filename D:\FLAC\Bob Marley & The Wailers - The Complete Bob Marley & The Wailers 1967-1972 Part II (1998) (3CD) [FLAC]\Disc 3 - More Axe\01 - Kaya (Alternate).wav

Pre-gap length 0:00:02.00

Peak level 99.5 %
Track quality 100.0 %
Test CRC FDE63212
Copy CRC FDE63212
Copy OK

Track 2
Filename D:\FLAC\Bob Marley & The Wailers - The Complete Bob Marley & The Wailers 1967-1972 Part II (1998) (3CD) [FLAC]\Disc 3 - More Axe\02 - Love Light (Original).wav

Pre-gap length 0:00:01.04

Peak level 97.6 %
Track quality 99.9 %
Test CRC FB819C58
Copy CRC FB819C58
Copy OK

Track 3
Filename D:\FLAC\Bob Marley & The Wailers - The Complete Bob Marley & The Wailers 1967-1972 Part II (1998) (3CD) [FLAC]\Disc 3 - More Axe\03 - Second Hand (Original).wav

Pre-gap length 0:00:01.02

Peak level 98.8 %
Track quality 100.0 %
Test CRC 44C849CA
Copy CRC 44C849CA
Copy OK

Track 4
Filename D:\FLAC\Bob Marley & The Wailers - The Complete Bob Marley & The Wailers 1967-1972 Part II (1998) (3CD) [FLAC]\Disc 3 - More Axe\04 - Jah Is Mighty (''Corner Stone'' Alternate).wav

Pre-gap length 0:00:01.02

Peak level 97.4 %
Track quality 100.0 %
Test CRC 221C201E
Copy CRC 221C201E
Copy OK

Track 5
Filename D:\FLAC\Bob Marley & The Wailers - The Complete Bob Marley & The Wailers 1967-1972 Part II (1998) (3CD) [FLAC]\Disc 3 - More Axe\05 - Run For Cover (''Soul Rebel'' Alternate).wav

Pre-gap length 0:00:01.04

Peak level 96.7 %
Track quality 100.0 %
Test CRC 5E01A6E1
Copy CRC 5E01A6E1
Copy OK

Track 6
Filename D:\FLAC\Bob Marley & The Wailers - The Complete Bob Marley & The Wailers 1967-1972 Part II (1998) (3CD) [FLAC]\Disc 3 - More Axe\06 - Man To Man (Original).wav

Pre-gap length 0:00:01.04

Peak level 86.1 %
Track quality 100.0 %
Test CRC F09DABAD
Copy CRC F09DABAD
Copy OK

Track 7
Filename D:\FLAC\Bob Marley & The Wailers - The Complete Bob Marley & The Wailers 1967-1972 Part II (1998) (3CD) [FLAC]\Disc 3 - More Axe\07 - Downpresser.wav

Pre-gap length 0:00:01.04

Peak level 97.0 %
Track quality 100.0 %
Test CRC C90DFC8C
Copy CRC C90DFC8C
Copy OK

Track 8
Filename D:\FLAC\Bob Marley & The Wailers - The Complete Bob Marley & The Wailers 1967-1972 Part II (1998) (3CD) [FLAC]\Disc 3 - More Axe\08 - Don't Rock My Boat (Alternate 2).wav

Pre-gap length 0:00:01.04

Peak level 91.8 %
Track quality 100.0 %
Test CRC 8326541D
Copy CRC 8326541D
Copy OK

Track 9
Filename D:\FLAC\Bob Marley & The Wailers - The Complete Bob Marley & The Wailers 1967-1972 Part II (1998) (3CD) [FLAC]\Disc 3 - More Axe\09 - More Axe (''Small Axe'' Alternate).wav

Pre-gap length 0:00:01.04

Peak level 88.0 %
Track quality 100.0 %
Test CRC AF843F32
Copy CRC AF843F32
Copy OK

Track 10
Filename D:\FLAC\Bob Marley & The Wailers - The Complete Bob Marley & The Wailers 1967-1972 Part II (1998) (3CD) [FLAC]\Disc 3 - More Axe\10 - Long Long Winter.wav

Pre-gap length 0:00:01.02

Peak level 96.2 %
Track quality 100.0 %
Test CRC 74573368
Copy CRC 74573368
Copy OK

Track 11
Filename D:\FLAC\Bob Marley & The Wailers - The Complete Bob Marley & The Wailers 1967-1972 Part II (1998) (3CD) [FLAC]\Disc 3 - More Axe\11 - All In One (Original).wav

Pre-gap length 0:00:01.02

Peak level 97.6 %
Track quality 100.0 %
Test CRC E31684F6
Copy CRC E31684F6
Copy OK

Track 12
Filename D:\FLAC\Bob Marley & The Wailers - The Complete Bob Marley & The Wailers 1967-1972 Part II (1998) (3CD) [FLAC]\Disc 3 - More Axe\12 - Turn Me Loose (''Kaya'' Alternate).wav

Pre-gap length 0:00:01.04

Peak level 97.4 %
Track quality 100.0 %
Test CRC 55D958AA
Copy CRC 55D958AA
Copy OK

Track 13
Filename D:\FLAC\Bob Marley & The Wailers - The Complete Bob Marley & The Wailers 1967-1972 Part II (1998) (3CD) [FLAC]\Disc 3 - More Axe\13 - Kaya (Version 2) (Scat Mix).wav

Pre-gap length 0:00:01.06

Peak level 96.3 %
Track quality 99.9 %
Test CRC 8E9390F0
Copy CRC 8E9390F0
Copy OK

Track 14
Filename D:\FLAC\Bob Marley & The Wailers - The Complete Bob Marley & The Wailers 1967-1972 Part II (1998) (3CD) [FLAC]\Disc 3 - More Axe\14 - Battle Axe (Version) (''Small Axe'' Version).wav

Pre-gap length 0:00:01.06

Peak level 79.4 %
Track quality 100.0 %
Test CRC 3ABFB033
Copy CRC 3ABFB033
Copy OK

Track 15
Filename D:\FLAC\Bob Marley & The Wailers - The Complete Bob Marley & The Wailers 1967-1972 Part II (1998) (3CD) [FLAC]\Disc 3 - More Axe\15 - Long Long Winter (Version).wav

Pre-gap length 0:00:01.04

Peak level 92.6 %
Track quality 100.0 %
Test CRC 3FEEF510
Copy CRC 3FEEF510
Copy OK

Track 16
Filename D:\FLAC\Bob Marley & The Wailers - The Complete Bob Marley & The Wailers 1967-1972 Part II (1998) (3CD) [FLAC]\Disc 3 - More Axe\16 - Second Hand (Version).wav

Pre-gap length 0:00:01.02

Peak level 85.3 %
Track quality 100.0 %
Test CRC A50FFA32
Copy CRC A50FFA32
Copy OK

Track 17
Filename D:\FLAC\Bob Marley & The Wailers - The Complete Bob Marley & The Wailers 1967-1972 Part II (1998) (3CD) [FLAC]\Disc 3 - More Axe\17 - Downpresser (Version).wav

Pre-gap length 0:00:01.02

Peak level 95.9 %
Track quality 100.0 %
Test CRC 2325D7F2
Copy CRC 2325D7F2
Copy OK

Track 18
Filename D:\FLAC\Bob Marley & The Wailers - The Complete Bob Marley & The Wailers 1967-1972 Part II (1998) (3CD) [FLAC]\Disc 3 - More Axe\18 - Shocks Of Mighty (''Soul Almighty'' Version featuring Lee Perry).wav

Pre-gap length 0:00:01.04

Peak level 94.4 %
Track quality 100.0 %
Test CRC 62CCD052
Copy CRC 62CCD052
Copy OK

Track 19
Filename D:\FLAC\Bob Marley & The Wailers - The Complete Bob Marley & The Wailers 1967-1972 Part II (1998) (3CD) [FLAC]\Disc 3 - More Axe\19 - Axe Man (''Small Axe'' Binghi Version).wav

Pre-gap length 0:00:01.02

Peak level 92.0 %
Track quality 100.0 %
Test CRC 49B11C51
Copy CRC 49B11C51
Copy OK

Track 20
Filename D:\FLAC\Bob Marley & The Wailers - The Complete Bob Marley & The Wailers 1967-1972 Part II (1998) (3CD) [FLAC]\Disc 3 - More Axe\20 - Nicoteen (''Man To Man'' Version).wav

Pre-gap length 0:00:01.04

Peak level 91.9 %
Track quality 100.0 %
Test CRC 2FF72E5E
Copy CRC 2FF72E5E
Copy OK

No errors occured


End of status report


=====

Bob Marley (& The Wailers) - The Complete Bob Marley & The Wailers 1967-1972 Parts I, II & III (1998/1999) (3CD/3CD/2CD)

The Complete Bob Marley & The Wailers 1967-1972 (Part III)
Released on 19 October, 1999
Bob Marley (& The Wailers) - The Complete Bob Marley & The Wailers 1967-1972 Parts I, II & III (1998/1999) (3CD/3CD/2CD)

DISC 1 - Keep On Skanking
01. All In One (Alternate)
02. All In One (Part II)
03. Keep On Skanking
04. Dreamland
05. Love Light (False Start)
06. Brand New Second Hand (False Start)
07. Brand New Second Hand (Second Hand Alternate)
08. Shocks Of Mighty (Alternate)
09. Keep On Moving (Extended Version) Part I
10. Keep On Moving (Extended Version) Part II
11. Keep On Moving (Extended Version) Part III
12. Concrete Jungle (Original)
13. Screwface (Alternate 2)
14. Satisfy My Soul Babe
15. Send Me That Love
16. Comma Comma
17. Jungle Dub ("Concrete Jungle" Version)
18. Dracula ("Who Is Mr. Brown" Version)
19. Love Light (Version)
20. Dreamland (Version)
21. Face Man ("Screwface" Version)
22. Satisfy My Soul Babe (Version)

–-
THE UPSETTERS:
Carlton "Carly" Barrett-drums
Hugh Malcolm-drums (tracks 15 & 16)
Aston "Family Man" Barrett-bass
Bunny Wailer-bass (track 14)
Alva "Reggie" Lewis-guitar
Ranford "Rannie Pop" Williams-guitar
Peter Tosh-guitar (tracks 13-16), keyboards, xylophone
Bob Marley-guitar (tracks 13-16)
Glen "Capo" Adams-keyboards
Gladstone "Gladdy" Anderson-keyboards
Tommy McCook-tenor sax
George "Deadly Headley" Bennett-alto sax
Dennis "Taste" Campbell-alto sax (tracks 9-11)
Uziah "Sticky" Thompson-percussion
Lennie Hibbert-xylophone

On "Dracula":
Glen Adams-organ

THE SOUL SYNDICATE:
Carlton "Santa" Davis-drums
George "Fully" Fulwood-bass
Earl "Chinna" Smith-lead guitar
Royo-saxophone

Produced by Lee "Scratch" Perry in 1970-1972 except tracks 13-16, 19, 21-23 produced by The Wailers

All tracks recorded at Randy's Studio 17 and Dynamic Studios, Kingston, Jamaica
Carlton Lee & Erroll Thompson-engineers

All tracks stereo except 5, 13-20

Compiled by Roger Steffens & Bruno Blum
Digital restoration & mastering produced by Bruno Blum at Abbey Road Studios with Terry Burch, Peter Mew, and Ron Hill, engineers

###

DISC 2 - Satisfy My Soul Jah Jah
01. Screwface (Alternate)
02. Redder Than Red
03. Lively Up Yourself (Original)
04. Trouble Dub ("Trouble On The Road Again" Alternate)
05. Dub Feeling ("Feel Alright" Alternate)
06. Satisfy My Soul Jah Jah ("Satisfy My Soul Babe" Alternate)
07. Kingston 12 Shuffle ("Trench Town Rock" Version)
08. Pour Down The Sunshine
09. Gonna Get You
10. Cry To Me (Acoustic Version)
11. Reggae On Broadway
12. I'm Hurting Inside (Alternate)
13. Oh Lord, Got To Get There
14. Dance Do The Reggae
15. Stay With Me
16. Guava Jelly (Alternate)
17. Guava ("Guava Jelly" Version)
18. Red ("Redder Than Red" Version)
19. Live ("Lively Up Yourself" Version)
20. Samba ("Lick Samba" Version)
21. Screwface (Version)
22. Grooving Kingston ("Trench Town Rock" Version)
23. Choke ("Craven Choke Puppy" Version)
24. Satisfy My Soul Jah Jah (Version)

–-
Musicians on tracks 1-8 and 16-24 include:
Carlton "Carly" Barrett-drums
Aston "Family Man" Barrett-bass
Alva "Reggie" Lewis-guitar
Ranford "Rannie Pop" Williams-guitar
Glen "Capo" Adams-keyboards
Winston Wright-keyboards (track 16)
Tommy McCook-tenor sax
George "Deadly Headley" Bennett-alto sax
Uziah "Sticky" Thompson-percussion

Musicians on tracks 9-15 include:
Richard Bailey-drums
Peter Dupri-bass
Winston Delandro-guitar
John "Rebbit" Bundrick-keyboards
Martin Ford-synthesizer
Anthony "Rebop" Kwaku Baah-percussion

THE SONS OF THE JUNGLE
George Lee-alto sax
Peter Vanderbilt-baritone sax
Eddie Quanza-trumpet

Produced by The Wailers except 9-15 produced by Johnny Nash, mixed at Noral Recording in New York City on April 4, 1972 with Jim Czak and John Post

All tracks recorded at Dynamic Sound & Randy's Studio 17, Kingston, Jamaica except tracks 9 & 11-15 recorded in CBS Theobalds Road Studio, London, and track 10 recorded by John "Rabbit" Bundrick in Bob's room, Aljvik, Sweden

All tracks are stereo except 1, 2, 6, 8, 12-13, 15-16, 18-19 & 22


Produced by Lee "Scratch" Perry in 1970-1972 except tracks 13-16, 19, 21-23 produced by The Wailers

All tracks recorded at Randy's Studio 17 and Dynamic Studios, Kingston, Jamaica
Carlton Lee & Erroll Thompson-engineers

Compiled by Bruno Blum & Roger Steffens
Digital restoration & mastering produced by Bruno Blum at Abbey Road Studios with Peter Mew, and Ron Hill, engineers
–-
The third and final installment of Jad's exhaustive documentation of the Wailers' early years, Complete Bob Marley & the Wailers 1967-1972, Part 3 takes listeners right up to the end of the pre-Island era. The set encompasses only two discs (as opposed to its predecessors' three), individually titled Keep on Skanking and Satisfy My Soul Jah Jah. Alternate versions and dub versions of well-known classics, plus a few previously unreleased tracks, make this a must-have for fans of this most fertile period for Jamaica's greatest trio. Compiled by Marley-ologist Roger Steffens, this exhaustive archive is the culmination of many years' work trying to get at Marley tunes that lay dormant in record company vaults around the world. Impeccable packaging, rare photos, and extensive liner notes make this a necessary addition to any Marley collection.Matthew

Bob Marley (& The Wailers) - The Complete Bob Marley & The Wailers 1967-1972 Parts I, II & III (1998/1999) (3CD/3CD/2CD)


EAC extraction logfile from 19. June 2007, 18:21 for CD
Bob Marley & The Wailers / The Complete Bob Marley & The Wailers 1967-1972 Part III (Disc 1)

Used drive : LITE-ON DVDRW SOHW-1633S Adapter: 0 ID: 0
Read mode : Secure with NO C2, accurate stream, disable cache
Read offset correction : 12
Overread into Lead-In and Lead-Out : No

Used output format : Internal WAV Routines
44.100 Hz; 16 Bit; Stereo

Other options :
Fill up missing offset samples with silence : Yes
Delete leading and trailing silent blocks : No
Installed external ASPI interface


Track 1
Filename D:\FLAC\Bob Marley & The Wailers - The Complete Bob Marley & The Wailers 1967-1972 Part III (1999) (2CD) [FLAC]\Disc 1 - Keep On Skanking\01 - All In One (Alternate).wav

Pre-gap length 0:00:02.00

Peak level 89.5 %
Track quality 100.0 %
Test CRC F5D9C7AC
Copy CRC F5D9C7AC
Copy OK

Track 2
Filename D:\FLAC\Bob Marley & The Wailers - The Complete Bob Marley & The Wailers 1967-1972 Part III (1999) (2CD) [FLAC]\Disc 1 - Keep On Skanking\02 - All In One (Part II).wav

Peak level 89.3 %
Track quality 100.0 %
Test CRC 1E7E8605
Copy CRC 1E7E8605
Copy OK

Track 3
Filename D:\FLAC\Bob Marley & The Wailers - The Complete Bob Marley & The Wailers 1967-1972 Part III (1999) (2CD) [FLAC]\Disc 1 - Keep On Skanking\03 - Keep On Skanking.wav

Pre-gap length 0:00:01.04

Peak level 89.3 %
Track quality 100.0 %
Test CRC D2DAE01D
Copy CRC D2DAE01D
Copy OK

Track 4
Filename D:\FLAC\Bob Marley & The Wailers - The Complete Bob Marley & The Wailers 1967-1972 Part III (1999) (2CD) [FLAC]\Disc 1 - Keep On Skanking\04 - Dreamland.wav

Pre-gap length 0:00:01.02

Peak level 88.4 %
Track quality 100.0 %
Test CRC FC4EFA06
Copy CRC FC4EFA06
Copy OK

Track 5
Filename D:\FLAC\Bob Marley & The Wailers - The Complete Bob Marley & The Wailers 1967-1972 Part III (1999) (2CD) [FLAC]\Disc 1 - Keep On Skanking\05 - Love Light (False Start).wav

Pre-gap length 0:00:01.04

Peak level 88.1 %
Track quality 100.0 %
Test CRC E58D7F1B
Copy CRC E58D7F1B
Copy OK

Track 6
Filename D:\FLAC\Bob Marley & The Wailers - The Complete Bob Marley & The Wailers 1967-1972 Part III (1999) (2CD) [FLAC]\Disc 1 - Keep On Skanking\06 - Brand New Second Hand (False Start).wav

Pre-gap length 0:00:01.06

Peak level 80.2 %
Track quality 100.0 %
Test CRC A0D04122
Copy CRC A0D04122
Copy OK

Track 7
Filename D:\FLAC\Bob Marley & The Wailers - The Complete Bob Marley & The Wailers 1967-1972 Part III (1999) (2CD) [FLAC]\Disc 1 - Keep On Skanking\07 - Brand New Second Hand (Second Hand Alternate).wav

Peak level 89.5 %
Track quality 100.0 %
Test CRC C182931C
Copy CRC C182931C
Copy OK

Track 8
Filename D:\FLAC\Bob Marley & The Wailers - The Complete Bob Marley & The Wailers 1967-1972 Part III (1999) (2CD) [FLAC]\Disc 1 - Keep On Skanking\08 - Shocks Of Mighty (Alternate).wav

Pre-gap length 0:00:01.04

Peak level 94.0 %
Track quality 100.0 %
Test CRC 9241A99D
Copy CRC 9241A99D
Copy OK

Track 9
Filename D:\FLAC\Bob Marley & The Wailers - The Complete Bob Marley & The Wailers 1967-1972 Part III (1999) (2CD) [FLAC]\Disc 1 - Keep On Skanking\09 - Keep On Moving (Extended Version) Part I.wav

Pre-gap length 0:00:01.02

Peak level 94.1 %
Track quality 99.9 %
Test CRC C85162E5
Copy CRC C85162E5
Copy OK

Track 10
Filename D:\FLAC\Bob Marley & The Wailers - The Complete Bob Marley & The Wailers 1967-1972 Part III (1999) (2CD) [FLAC]\Disc 1 - Keep On Skanking\10 - Keep On Moving (Extended Version) Part II.wav

Peak level 93.5 %
Track quality 99.9 %
Test CRC 9699C06E
Copy CRC 9699C06E
Copy OK

Track 11
Filename D:\FLAC\Bob Marley & The Wailers - The Complete Bob Marley & The Wailers 1967-1972 Part III (1999) (2CD) [FLAC]\Disc 1 - Keep On Skanking\11 - Keep On Moving (Extended Version) Part III.wav

Peak level 90.1 %
Track quality 100.0 %
Test CRC BF123657
Copy CRC BF123657
Copy OK

Track 12
Filename D:\FLAC\Bob Marley & The Wailers - The Complete Bob Marley & The Wailers 1967-1972 Part III (1999) (2CD) [FLAC]\Disc 1 - Keep On Skanking\12 - Concrete Jungle (Original).wav

Pre-gap length 0:00:01.04

Peak level 75.2 %
Track quality 100.0 %
Test CRC 08029719
Copy CRC 08029719
Copy OK

Track 13
Filename D:\FLAC\Bob Marley & The Wailers - The Complete Bob Marley & The Wailers 1967-1972 Part III (1999) (2CD) [FLAC]\Disc 1 - Keep On Skanking\13 - Screwface (Alternate 2).wav

Pre-gap length 0:00:01.04

Peak level 74.7 %
Track quality 100.0 %
Test CRC CC2B41FE
Copy CRC CC2B41FE
Copy OK

Track 14
Filename D:\FLAC\Bob Marley & The Wailers - The Complete Bob Marley & The Wailers 1967-1972 Part III (1999) (2CD) [FLAC]\Disc 1 - Keep On Skanking\14 - Satisfy My Soul Babe.wav

Pre-gap length 0:00:01.02

Peak level 67.1 %
Track quality 100.0 %
Test CRC EAE28163
Copy CRC EAE28163
Copy OK

Track 15
Filename D:\FLAC\Bob Marley & The Wailers - The Complete Bob Marley & The Wailers 1967-1972 Part III (1999) (2CD) [FLAC]\Disc 1 - Keep On Skanking\15 - Send Me That Love.wav

Pre-gap length 0:00:01.06

Peak level 89.7 %
Track quality 100.0 %
Test CRC FB3B1E49
Copy CRC FB3B1E49
Copy OK

Track 16
Filename D:\FLAC\Bob Marley & The Wailers - The Complete Bob Marley & The Wailers 1967-1972 Part III (1999) (2CD) [FLAC]\Disc 1 - Keep On Skanking\16 - Comma Comma.wav

Pre-gap length 0:00:01.04

Peak level 94.3 %
Track quality 100.0 %
Test CRC 49A49494
Copy CRC 49A49494
Copy OK

Track 17
Filename D:\FLAC\Bob Marley & The Wailers - The Complete Bob Marley & The Wailers 1967-1972 Part III (1999) (2CD) [FLAC]\Disc 1 - Keep On Skanking\17 - Jungle Dub (''Concrete Jungle'' Version).wav

Pre-gap length 0:00:01.02

Peak level 75.2 %
Track quality 100.0 %
Test CRC D9B3D461
Copy CRC D9B3D461
Copy OK

Track 18
Filename D:\FLAC\Bob Marley & The Wailers - The Complete Bob Marley & The Wailers 1967-1972 Part III (1999) (2CD) [FLAC]\Disc 1 - Keep On Skanking\18 - Dracula (''Who Is Mr. Brown'' Version).wav

Pre-gap length 0:00:01.04

Peak level 89.3 %
Track quality 100.0 %
Test CRC 151E76C1
Copy CRC 151E76C1
Copy OK

Track 19
Filename D:\FLAC\Bob Marley & The Wailers - The Complete Bob Marley & The Wailers 1967-1972 Part III (1999) (2CD) [FLAC]\Disc 1 - Keep On Skanking\19 - Love Light (Version).wav

Pre-gap length 0:00:01.02

Peak level 92.3 %
Track quality 100.0 %
Test CRC C40BE1BD
Copy CRC C40BE1BD
Copy OK

Track 20
Filename D:\FLAC\Bob Marley & The Wailers - The Complete Bob Marley & The Wailers 1967-1972 Part III (1999) (2CD) [FLAC]\Disc 1 - Keep On Skanking\20 - Dreamland (Version).wav

Pre-gap length 0:00:01.04

Peak level 87.7 %
Track quality 100.0 %
Test CRC 35208EA8
Copy CRC 35208EA8
Copy OK

Track 21
Filename D:\FLAC\Bob Marley & The Wailers - The Complete Bob Marley & The Wailers 1967-1972 Part III (1999) (2CD) [FLAC]\Disc 1 - Keep On Skanking\21 - Face Man (''Screwface'' Version).wav

Pre-gap length 0:00:01.04

Peak level 89.2 %
Track quality 100.0 %
Test CRC E47BB93C
Copy CRC E47BB93C
Copy OK

Track 22
Filename D:\FLAC\Bob Marley & The Wailers - The Complete Bob Marley & The Wailers 1967-1972 Part III (1999) (2CD) [FLAC]\Disc 1 - Keep On Skanking\22 - Satisfy My Soul Babe (Version).wav

Pre-gap length 0:00:01.02

Peak level 77.8 %
Track quality 100.0 %
Test CRC 587DDEDE
Copy CRC 587DDEDE
Copy OK

No errors occured


End of status report



EAC extraction logfile from 19. June 2007, 20:17 for CD
Bob Marley & The Wailers / The Complete Bob Marley & The Wailers 1967-1972 Part III (Disc 2)

Used drive : LITE-ON DVDRW SOHW-1633S Adapter: 0 ID: 0
Read mode : Secure with NO C2, accurate stream, disable cache
Read offset correction : 12
Overread into Lead-In and Lead-Out : No

Used output format : Internal WAV Routines
44.100 Hz; 16 Bit; Stereo

Other options :
Fill up missing offset samples with silence : Yes
Delete leading and trailing silent blocks : No
Installed external ASPI interface


Track 1
Filename D:\FLAC\Bob Marley & The Wailers - The Complete Bob Marley & The Wailers 1967-1972 Part III (1999) (2CD) [FLAC]\Disc 2 - Satisfy My Soul Jah Jah\01 - Screwface (Alternate).wav

Pre-gap length 0:00:02.00

Peak level 89.8 %
Track quality 100.0 %
Test CRC D16A549F
Copy CRC D16A549F
Copy OK

Track 2
Filename D:\FLAC\Bob Marley & The Wailers - The Complete Bob Marley & The Wailers 1967-1972 Part III (1999) (2CD) [FLAC]\Disc 2 - Satisfy My Soul Jah Jah\02 - Redder Than Red.wav

Pre-gap length 0:00:01.04

Peak level 87.0 %
Track quality 100.0 %
Test CRC 83C432A7
Copy CRC 83C432A7
Copy OK

Track 3
Filename D:\FLAC\Bob Marley & The Wailers - The Complete Bob Marley & The Wailers 1967-1972 Part III (1999) (2CD) [FLAC]\Disc 2 - Satisfy My Soul Jah Jah\03 - Lively Up Yourself (Original).wav

Pre-gap length 0:00:01.04

Peak level 91.8 %
Track quality 100.0 %
Test CRC F9FD7B4B
Copy CRC F9FD7B4B
Copy OK

Track 4
Filename D:\FLAC\Bob Marley & The Wailers - The Complete Bob Marley & The Wailers 1967-1972 Part III (1999) (2CD) [FLAC]\Disc 2 - Satisfy My Soul Jah Jah\04 - Trouble Dub (''Trouble On The Road Again'' Alternate).wav

Pre-gap length 0:00:01.02

Peak level 74.1 %
Track quality 99.9 %
Test CRC 968B2F41
Copy CRC 968B2F41
Copy OK

Track 5
Filename D:\FLAC\Bob Marley & The Wailers - The Complete Bob Marley & The Wailers 1967-1972 Part III (1999) (2CD) [FLAC]\Disc 2 - Satisfy My Soul Jah Jah\05 - Dub Feeling (''Feel Alright'' Alternate).wav

Pre-gap length 0:00:01.06

Peak level 90.7 %
Track quality 100.0 %
Test CRC 052F2DF5
Copy CRC 052F2DF5
Copy OK

Track 6
Filename D:\FLAC\Bob Marley & The Wailers - The Complete Bob Marley & The Wailers 1967-1972 Part III (1999) (2CD) [FLAC]\Disc 2 - Satisfy My Soul Jah Jah\06 - Satisfy My Soul Jah Jah (''Satisfy My Soul Babe'' Alternate).wav

Pre-gap length 0:00:01.02

Peak level 97.2 %
Track quality 100.0 %
Test CRC 616022D8
Copy CRC 616022D8
Copy OK

Track 7
Filename D:\FLAC\Bob Marley & The Wailers - The Complete Bob Marley & The Wailers 1967-1972 Part III (1999) (2CD) [FLAC]\Disc 2 - Satisfy My Soul Jah Jah\07 - Kingston 12 Shuffle (''Trench Town Rock'' Version).wav

Pre-gap length 0:00:01.04

Peak level 91.1 %
Track quality 100.0 %
Test CRC 3A08EDCE
Copy CRC 3A08EDCE
Copy OK

Track 8
Filename D:\FLAC\Bob Marley & The Wailers - The Complete Bob Marley & The Wailers 1967-1972 Part III (1999) (2CD) [FLAC]\Disc 2 - Satisfy My Soul Jah Jah\08 - Pour Down The Sunshine.wav

Pre-gap length 0:00:01.04

Peak level 74.1 %
Track quality 100.0 %
Test CRC C90D73CE
Copy CRC C90D73CE
Copy OK

Track 9
Filename D:\FLAC\Bob Marley & The Wailers - The Complete Bob Marley & The Wailers 1967-1972 Part III (1999) (2CD) [FLAC]\Disc 2 - Satisfy My Soul Jah Jah\09 - Gonna Get You.wav

Pre-gap length 0:00:01.02

Peak level 94.8 %
Track quality 100.0 %
Test CRC 48ADDC71
Copy CRC 48ADDC71
Copy OK

Track 10
Filename D:\FLAC\Bob Marley & The Wailers - The Complete Bob Marley & The Wailers 1967-1972 Part III (1999) (2CD) [FLAC]\Disc 2 - Satisfy My Soul Jah Jah\10 - Cry To Me (Acoustic Version).wav

Pre-gap length 0:00:01.02

Peak level 66.2 %
Track quality 100.0 %
Test CRC 4F699F62
Copy CRC 4F699F62
Copy OK

Track 11
Filename D:\FLAC\Bob Marley & The Wailers - The Complete Bob Marley & The Wailers 1967-1972 Part III (1999) (2CD) [FLAC]\Disc 2 - Satisfy My Soul Jah Jah\11 - Reggae On Broadway.wav

Pre-gap length 0:00:01.04

Peak level 91.7 %
Track quality 100.0 %
Test CRC BC8F749F
Copy CRC BC8F749F
Copy OK

Track 12
Filename D:\FLAC\Bob Marley & The Wailers - The Complete Bob Marley & The Wailers 1967-1972 Part III (1999) (2CD) [FLAC]\Disc 2 - Satisfy My Soul Jah Jah\12 - I'm Hurting Inside (Alternate).wav

Pre-gap length 0:00:01.02

Peak level 84.9 %
Track quality 100.0 %
Test CRC F333821A
Copy CRC F333821A
Copy OK

Track 13
Filename D:\FLAC\Bob Marley & The Wailers - The Complete Bob Marley & The Wailers 1967-1972 Part III (1999) (2CD) [FLAC]\Disc 2 - Satisfy My Soul Jah Jah\13 - Oh Lord, Got To Get There.wav

Pre-gap length 0:00:01.04

Peak level 89.0 %
Track quality 100.0 %
Test CRC EE9DC141
Copy CRC EE9DC141
Copy OK

Track 14
Filename D:\FLAC\Bob Marley & The Wailers - The Complete Bob Marley & The Wailers 1967-1972 Part III (1999) (2CD) [FLAC]\Disc 2 - Satisfy My Soul Jah Jah\14 - Dance Do The Reggae.wav

Pre-gap length 0:00:01.02

Peak level 93.8 %
Track quality 100.0 %
Test CRC F928B013
Copy CRC F928B013
Copy OK

Track 15
Filename D:\FLAC\Bob Marley & The Wailers - The Complete Bob Marley & The Wailers 1967-1972 Part III (1999) (2CD) [FLAC]\Disc 2 - Satisfy My Soul Jah Jah\15 - Stay With Me.wav

Pre-gap length 0:00:01.04

Peak level 90.0 %
Track quality 100.0 %
Test CRC 1421E083
Copy CRC 1421E083
Copy OK

Track 16
Filename D:\FLAC\Bob Marley & The Wailers - The Complete Bob Marley & The Wailers 1967-1972 Part III (1999) (2CD) [FLAC]\Disc 2 - Satisfy My Soul Jah Jah\16 - Guava Jelly (Alternate).wav

Pre-gap length 0:00:01.04

Peak level 77.1 %
Track quality 99.9 %
Test CRC 978522EC
Copy CRC 978522EC
Copy OK

Track 17
Filename D:\FLAC\Bob Marley & The Wailers - The Complete Bob Marley & The Wailers 1967-1972 Part III (1999) (2CD) [FLAC]\Disc 2 - Satisfy My Soul Jah Jah\17 - Guava (''Guava Jelly'' Version).wav

Pre-gap length 0:00:01.04

Peak level 73.1 %
Track quality 100.0 %
Test CRC 59EB6D12
Copy CRC 59EB6D12
Copy OK

Track 18
Filename D:\FLAC\Bob Marley & The Wailers - The Complete Bob Marley & The Wailers 1967-1972 Part III (1999) (2CD) [FLAC]\Disc 2 - Satisfy My Soul Jah Jah\18 - Red (''Redder Than Red'' Version).wav

Pre-gap length 0:00:01.06

Peak level 89.5 %
Track quality 100.0 %
Test CRC 3C4CE8E1
Copy CRC 3C4CE8E1
Copy OK

Track 19
Filename D:\FLAC\Bob Marley & The Wailers - The Complete Bob Marley & The Wailers 1967-1972 Part III (1999) (2CD) [FLAC]\Disc 2 - Satisfy My Soul Jah Jah\19 - Live (''Lively Up Yourself'' Version).wav

Pre-gap length 0:00:01.04

Peak level 91.3 %
Track quality 100.0 %
Test CRC F7C4C30E
Copy CRC F7C4C30E
Copy OK

Track 20
Filename D:\FLAC\Bob Marley & The Wailers - The Complete Bob Marley & The Wailers 1967-1972 Part III (1999) (2CD) [FLAC]\Disc 2 - Satisfy My Soul Jah Jah\20 - Samba (''Lick Samba'' Version).wav

Pre-gap length 0:00:01.04

Peak level 91.9 %
Track quality 100.0 %
Test CRC 5CAC4C08
Copy CRC 5CAC4C08
Copy OK

Track 21
Filename D:\FLAC\Bob Marley & The Wailers - The Complete Bob Marley & The Wailers 1967-1972 Part III (1999) (2CD) [FLAC]\Disc 2 - Satisfy My Soul Jah Jah\21 - Screwface (Version).wav

Pre-gap length 0:00:01.04

Peak level 90.0 %
Track quality 100.0 %
Test CRC 447BA880
Copy CRC 447BA880
Copy OK

Track 22
Filename D:\FLAC\Bob Marley & The Wailers - The Complete Bob Marley & The Wailers 1967-1972 Part III (1999) (2CD) [FLAC]\Disc 2 - Satisfy My Soul Jah Jah\22 - Grooving Kingston (''Trench Town Rock'' Version).wav

Pre-gap length 0:00:01.04

Peak level 92.7 %
Track quality 100.0 %
Test CRC DAA641AA
Copy CRC DAA641AA
Copy OK

Track 23
Filename D:\FLAC\Bob Marley & The Wailers - The Complete Bob Marley & The Wailers 1967-1972 Part III (1999) (2CD) [FLAC]\Disc 2 - Satisfy My Soul Jah Jah\23 - Choke (''Craven Choke Puppy'' Version).wav

Pre-gap length 0:00:01.02

Peak level 84.8 %
Track quality 100.0 %
Test CRC 9758587A
Copy CRC 9758587A
Copy OK

Track 24
Filename D:\FLAC\Bob Marley & The Wailers - The Complete Bob Marley & The Wailers 1967-1972 Part III (1999) (2CD) [FLAC]\Disc 2 - Satisfy My Soul Jah Jah\24 - Satisfy My Soul Jah Jah (Version).wav

Pre-gap length 0:00:01.04

Peak level 94.6 %
Track quality 100.0 %
Test CRC 8894C324
Copy CRC 8894C324
Copy OK

No errors occured


End of status report