Subcategories

Bob Rivers Comedy Corp - Twisted Christmas (1987) {Critique/Atco} **[RE-UP]**

Posted By: TestTickles
Bob Rivers Comedy Corp - Twisted Christmas (1987) {Critique/Atco} **[RE-UP]**

Bob Rivers Comedy Corp - Twisted Christmas (1987) {Critique/Atco}
EAC Rip | FLAC with CUE and log | scans | 153 mb
MP3 CBR 320kbps | RAR | 58 mb
Genre: comedy, Christmas, holiday

Twisted Christmas is the 1987 album by the Bob Rivers Comedy Corp, headed by Bob Rivers. Upon release, this made it into Billboard's Album Chart and sold 500,000 copies, certified gold by the RIAA.

Bob Rivers Comedy Corp - Twisted Christmas (1987) {Critique/Atco} **[RE-UP]**

1. The Twelve Pains Of Christmas (3:36)
2. The Chimney Song (2:06)
3. We Wish You Weren't Living With Us (0:44)
4. Wreck The Malls (2:02)
5. A Visit From St. Nicholson (4:30)
6. O Come All Ye Grateful Dead-Heads (1:23)
7. I'm Dressin' Up Like Santa (When I Get Out On Parole) (3:06)
8. The Restroom Door Said "Gentlemen" (1:33)
9. Foreigners (2:07)
10. Joy To The World (1:22)
11. A Message From The King (2:18)

Produced by Bob Rivers, Dennis Amero and Brian Silva for Bob Rivers Comedy Corp
Mixed by Phil Greene with the assistance of Ralph Petrarca at Normandu Sound in Warren, RI
Mastered by Sam Feldman

Bob Rivers Comedy Corp - Twisted Christmas (1987) {Critique/Atco} **[RE-UP]**


Exact Audio Copy V1.1 from 23. June 2015

EAC extraction logfile from 18. July 2016, 11:37

Bob Rivers Comedy Corp / Twisted Christmas

Used drive : TEAC DVD-ROM DV-28SW Adapter: 1 ID: 0

Read mode : Secure
Utilize accurate stream : Yes
Defeat audio cache : Yes
Make use of C2 pointers : No

Read offset correction : 6
Overread into Lead-In and Lead-Out : No
Fill up missing offset samples with silence : Yes
Delete leading and trailing silent blocks : No
Null samples used in CRC calculations : Yes
Used interface : Native Win32 interface for Win NT & 2000
Gap handling : Appended to previous track

Used output format : Internal WAV Routines
Sample format : 44.100 Hz; 16 Bit; Stereo


TOC of the extracted CD

Track | Start | Length | Start sector | End sector
––––––––––––––––––––––––––––-
1 | 0:00.32 | 3:41.48 | 32 | 16654
2 | 3:42.05 | 2:11.42 | 16655 | 26521
3 | 5:53.47 | 0:49.50 | 26522 | 30246
4 | 6:43.22 | 2:04.58 | 30247 | 39604
5 | 8:48.05 | 4:32.32 | 39605 | 60036
6 | 13:20.37 | 1:26.00 | 60037 | 66486
7 | 14:46.37 | 3:08.45 | 66487 | 80631
8 | 17:55.07 | 1:36.23 | 80632 | 87854
9 | 19:31.30 | 2:08.42 | 87855 | 97496
10 | 21:39.72 | 1:23.10 | 97497 | 103731
11 | 23:03.07 | 2:18.00 | 103732 | 114081


Track 1

Filename C:\My Documents\My FLAC\Bob Rivers Comedy Corp - Twisted Christmas (1987) [FLAC]\01 - The Twelve Pains Of Christmas.wav

Pre-gap length 0:00:02.32

Peak level 80.0 %
Extraction speed 2.7 X
Track quality 100.0 %
Test CRC 18BDEDB4
Copy CRC 18BDEDB4
Accurately ripped (confidence 31) [BC3477C4] (AR v2)
Copy OK

Track 2

Filename C:\My Documents\My FLAC\Bob Rivers Comedy Corp - Twisted Christmas (1987) [FLAC]\02 - The Chimney Song.wav

Pre-gap length 0:00:04.23

Peak level 70.8 %
Extraction speed 2.5 X
Track quality 100.0 %
Test CRC 50988E95
Copy CRC 50988E95
Accurately ripped (confidence 32) [3EEF67C3] (AR v2)
Copy OK

Track 3

Filename C:\My Documents\My FLAC\Bob Rivers Comedy Corp - Twisted Christmas (1987) [FLAC]\03 - We Wish You Weren't Living With Us.wav

Pre-gap length 0:00:04.62

Peak level 78.1 %
Extraction speed 1.7 X
Track quality 100.0 %
Test CRC 84A7C3BC
Copy CRC 84A7C3BC
Accurately ripped (confidence 32) [336CEBAB] (AR v2)
Copy OK

Track 4

Filename C:\My Documents\My FLAC\Bob Rivers Comedy Corp - Twisted Christmas (1987) [FLAC]\04 - Wreck The Malls.wav

Pre-gap length 0:00:04.20

Peak level 100.0 %
Extraction speed 2.7 X
Track quality 100.0 %
Test CRC 355F1943
Copy CRC 355F1943
Accurately ripped (confidence 32) [57E8DBEE] (AR v2)
Copy OK

Track 5

Filename C:\My Documents\My FLAC\Bob Rivers Comedy Corp - Twisted Christmas (1987) [FLAC]\05 - A Visit From St. Nicholson.wav

Pre-gap length 0:00:03.10

Peak level 71.4 %
Extraction speed 3.3 X
Track quality 100.0 %
Test CRC 67A1E044
Copy CRC 67A1E044
Accurately ripped (confidence 31) [F60A5C48] (AR v2)
Copy OK

Track 6

Filename C:\My Documents\My FLAC\Bob Rivers Comedy Corp - Twisted Christmas (1987) [FLAC]\06 - O Come All Ye Grateful Dead Heads.wav

Pre-gap length 0:00:03.32

Peak level 67.6 %
Extraction speed 2.1 X
Track quality 99.8 %
Test CRC F3700F25
Copy CRC F3700F25
Accurately ripped (confidence 32) [DC05B937] (AR v2)
Copy OK

Track 7

Filename C:\My Documents\My FLAC\Bob Rivers Comedy Corp - Twisted Christmas (1987) [FLAC]\07 - I'm Dressin' Up Like Santa (When I Get Out On Parole).wav

Pre-gap length 0:00:00.42

Peak level 100.0 %
Extraction speed 3.6 X
Track quality 100.0 %
Test CRC 40A4BE36
Copy CRC 40A4BE36
Accurately ripped (confidence 31) [3CDD5264] (AR v2)
Copy OK

Track 8

Filename C:\My Documents\My FLAC\Bob Rivers Comedy Corp - Twisted Christmas (1987) [FLAC]\08 - The Restroom Door Said, ''Gentlemen''.wav

Pre-gap length 0:00:00.40

Peak level 73.4 %
Extraction speed 3.2 X
Track quality 100.0 %
Test CRC F074D197
Copy CRC F074D197
Accurately ripped (confidence 31) [D590C8AA] (AR v2)
Copy OK

Track 9

Filename C:\My Documents\My FLAC\Bob Rivers Comedy Corp - Twisted Christmas (1987) [FLAC]\09 - Foreigners.wav

Pre-gap length 0:00:01.48

Peak level 97.1 %
Extraction speed 3.6 X
Track quality 100.0 %
Test CRC CB422C97
Copy CRC CB422C97
Accurately ripped (confidence 32) [F544FB1A] (AR v2)
Copy OK

Track 10

Filename C:\My Documents\My FLAC\Bob Rivers Comedy Corp - Twisted Christmas (1987) [FLAC]\10 - Joy To The World.wav

Pre-gap length 0:00:00.37

Peak level 71.6 %
Extraction speed 3.2 X
Track quality 100.0 %
Test CRC 5518EE3F
Copy CRC 5518EE3F
Accurately ripped (confidence 32) [9ED078EC] (AR v2)
Copy OK

Track 11

Filename C:\My Documents\My FLAC\Bob Rivers Comedy Corp - Twisted Christmas (1987) [FLAC]\11 - A Message From The King.wav

Peak level 69.4 %
Extraction speed 3.8 X
Track quality 100.0 %
Test CRC D31659BE
Copy CRC D31659BE
Accurately ripped (confidence 31) [BC8F2514] (AR v2)
Copy OK


All tracks accurately ripped

No errors occurred

End of status report

–– CUETools DB Plugin V2.1.6

[CTDB TOCID: QU6j4TZxSXK9mEujt4JQNw7nbRI-] found
Submit result: QU6j4TZxSXK9mEujt4JQNw7nbRI- has been confirmed
Track | CTDB Status
1 | (32/35) Accurately ripped
2 | (33/35) Accurately ripped
3 | (33/35) Accurately ripped
4 | (33/35) Accurately ripped
5 | (32/35) Accurately ripped
6 | (33/35) Accurately ripped
7 | (33/35) Accurately ripped
8 | (33/35) Accurately ripped
9 | (33/35) Accurately ripped
10 | (33/35) Accurately ripped
11 | (34/35) Accurately ripped


==== Log checksum ABE21492ACF15CAA39206ED5A3AC73FE8B241E2F6FD9679E0B895325A4A0B0B9 ====