Subcategories

Beck - Deadweight (UK CD5) (1997) {Geffen} **[RE-UP]**

Posted By: TestTickles
Beck - Deadweight (UK CD5) (1997) {Geffen} **[RE-UP]**

Beck - Deadweight (UK CD5) (1997) {Geffen}
EAC Rip | FLAC with CUE and log | scans | 68 mb
MP3 CBR 320kbps | RAR | 27 mb
Genre: alternative, bossa nova, Americana, acoustic, country

Deadweight is the 1997 single by Beck Hansen, known under the mononym Beck. It features the hit song plus two non-LP tracks. The song is taken from the soundtrack to A Life Less Ordinary. Geffen funded the checks.
With the success of Odelay to look at, Beck was now asked to do music for films. "Deadweight" is a song taken from the Odelay recording sessions, and would be a brief pit stop between the Odelay experience and the forthcoming Mutations.

Maybe a coincidence, but the instrumental the Dust Brothers created for "Deadweight" sounds a lot like what would end up on Sukia's Contacto Espacial con el Tercer Sexo.

Beck - Deadweight (UK CD5) (1997) {Geffen} **[RE-UP]**

1. Deadweight (Edit)
Beck Hansen-vocals, acoustic and electric guitar, bass, drum machine, keyboards
Produced by Beck Hansen/Dust Brothers

2. Erase The Sun
Joey Waronker-drums
Beck Hansen-vocals, guitar, bass, piano, harmonica, synthesizer

Produced by Mario C./Beck Hansen
Recorded May 1995 At G-Son Studios

3. SA-5
Beck Hansen-vocals, drum machine, guitar

Track 1 taken from the Original Soundtrack album, A Life Less Ordinary

EAC extraction logfile from 15. October 2006, 8:57 for CD
Beck / Deadweight (UK CD5)

Used drive : LITE-ON DVDRW SOHW-1633S Adapter: 0 ID: 0
Read mode : Secure with NO C2, accurate stream, disable cache
Read offset correction : 12
Overread into Lead-In and Lead-Out : No

Used output format : Internal WAV Routines
44.100 Hz; 16 Bit; Stereo

Other options :
Fill up missing offset samples with silence : Yes
Delete leading and trailing silent blocks : No
Installed external ASPI interface


Track 1
Filename D:\FLAC\Beck - Deadweight (UK CD5) (1997) [FLAC] {Geffen}\01 - Deadweight (Edit).wav

Pre-gap length 0:00:02.00

Peak level 99.9 %
Track quality 100.0 %
Test CRC 6B05DACC
Copy CRC 6B05DACC
Copy OK

Track 2
Filename D:\FLAC\Beck - Deadweight (UK CD5) (1997) [FLAC] {Geffen}\02 - Erase The Sun.wav

Pre-gap length 0:00:03.06

Peak level 98.1 %
Track quality 99.9 %
Test CRC 6E2402AA
Copy CRC 6E2402AA
Copy OK

Track 3
Filename D:\FLAC\Beck - Deadweight (UK CD5) (1997) [FLAC] {Geffen}\03 - SA-5.wav

Pre-gap length 0:00:03.56

Peak level 97.2 %
Track quality 100.0 %
Test CRC 686C8873
Copy CRC 686C8873
Copy OK

No errors occured


End of status report


Beck - Deadweight (UK CD5) (1997) {Geffen} **[RE-UP]**