Subcategories

Berlin Soundpainting Orchestra - Holothuria (2016) {Aut} **[RE-UP]**

Posted By: TestTickles
Berlin Soundpainting Orchestra - Holothuria (2016) {Aut} **[RE-UP]**

Berlin Soundpainting Orchestra - Holothuria (2016) {Aut}
EAC Rip | FLAC with CUE and log | scans | 246 mb
MP3 CBR 320kbps | RAR | 101 mb
Genre: experimental, electronic

Holothuria is the 2016 album by The Berlin Soundpainting Orchestra. This has been critically acclaimed by those who paid attention to it. This was released by the Aut label.

Berlin Soundpainting Orchestra - Holothuria (2016) {Aut} **[RE-UP]**

Holothurian Suite (To Diego Gymmers)
1. I. Plankton For Lunch 03:00
2. II. Holothuria's Paarungsruf 03:52
3. III. Encounter With a Mollusk 04:16
4. IV. Plankton For Dinner 03:18

5. Submarine Volcano 05:21
6. Sölid Particles 04:19
7. Hydrothermal Interaction 04:16
8. Supercritical Mass 03:43
9. Organic Matter 04:41
10. Ur-Tier 08:08

Charlotte Barnett-voice
Bianca G.-voice
Makiho Yoshida-violin
Penelope Gkika-violin
Davide Lorenzon-alto saxo, bass clarinet
Federico Eterno-alto sax, clarinet
Jonahtnan Lindhorst-tenor sax
Dominic Sell-electric guitar
Bob Meanza-electronica
Kriton B.-harmonium, objects
Rieko Okuda-piano
Adam Goodwin-double bass
Antti Virtaranta-double bass
Adrian David Krok-drums

Hada Benedito-artistic direction, composition, soundpainting

Produced by Berlin Soundpainting Orchestra, Hada Benedito and Aut Records in May 2016
Recorded by Liuis Enguix on 31 October to 1 November, 2015 at Studioboerne45, Berlin
Mixed by Liuis Enguix
Mastered by Stefano Moretti

Exact Audio Copy V1.1 from 23. June 2015

EAC extraction logfile from 3. November 2016, 8:05

Berlin Soundpainting Orchestra / Holothuria

Used drive : TEAC DVD-ROM DV-28SW Adapter: 1 ID: 0

Read mode : Secure
Utilize accurate stream : Yes
Defeat audio cache : Yes
Make use of C2 pointers : No

Read offset correction : 6
Overread into Lead-In and Lead-Out : No
Fill up missing offset samples with silence : Yes
Delete leading and trailing silent blocks : No
Null samples used in CRC calculations : Yes
Used interface : Native Win32 interface for Win NT & 2000
Gap handling : Appended to previous track

Used output format : Internal WAV Routines
Sample format : 44.100 Hz; 16 Bit; Stereo


TOC of the extracted CD

Track | Start | Length | Start sector | End sector
––––––––––––––––––––––––––––-
1 | 0:00.00 | 3:00.43 | 0 | 13542
2 | 3:00.43 | 3:52.62 | 13543 | 31004
3 | 6:53.30 | 4:16.56 | 31005 | 50260
4 | 11:10.11 | 3:18.62 | 50261 | 65172
5 | 14:28.73 | 5:21.36 | 65173 | 89283
6 | 19:50.34 | 4:19.18 | 89284 | 108726
7 | 24:09.52 | 4:16.47 | 108727 | 127973
8 | 28:26.24 | 3:43.09 | 127974 | 144707
9 | 32:09.33 | 4:41.35 | 144708 | 165817
10 | 36:50.68 | 8:08.56 | 165818 | 202473


Track 1

Filename C:\My Documents\My FLAC\Berlin Soundpainting Orchestra - Holothuria (2016) [FLAC] {Aut}\01 - Holothurian Suite (To Diego Gymmers)- I. Plankton For Lunch.wav

Pre-gap length 0:00:02.00

Peak level 96.5 %
Extraction speed 1.5 X
Track quality 99.9 %
Test CRC 1DDD1C76
Copy CRC 1DDD1C76
Track not present in AccurateRip database
Copy OK

Track 2

Filename C:\My Documents\My FLAC\Berlin Soundpainting Orchestra - Holothuria (2016) [FLAC] {Aut}\02 - Holothurian Suite (To Diego Gymmers)- II. Holothuria's Paarungsruf.wav

Peak level 100.0 %
Extraction speed 2.0 X
Track quality 100.0 %
Test CRC 30A380E3
Copy CRC 30A380E3
Track not present in AccurateRip database
Copy OK

Track 3

Filename C:\My Documents\My FLAC\Berlin Soundpainting Orchestra - Holothuria (2016) [FLAC] {Aut}\03 - Holothurian Suite (To Diego Gymmers)- III. Encounter With A Mollusk.wav

Peak level 100.0 %
Extraction speed 2.3 X
Track quality 100.0 %
Test CRC ADEC18AF
Copy CRC ADEC18AF
Track not present in AccurateRip database
Copy OK

Track 4

Filename C:\My Documents\My FLAC\Berlin Soundpainting Orchestra - Holothuria (2016) [FLAC] {Aut}\04 - Holothurian Suite (To Diego Gymmers)- IV. Plankton For Dinner.wav

Peak level 100.0 %
Extraction speed 2.4 X
Track quality 100.0 %
Test CRC 742A2A01
Copy CRC 742A2A01
Track not present in AccurateRip database
Copy OK

Track 5

Filename C:\My Documents\My FLAC\Berlin Soundpainting Orchestra - Holothuria (2016) [FLAC] {Aut}\05 - Submarine Volcano.wav

Peak level 100.0 %
Extraction speed 2.7 X
Track quality 100.0 %
Test CRC C7691997
Copy CRC C7691997
Track not present in AccurateRip database
Copy OK

Track 6

Filename C:\My Documents\My FLAC\Berlin Soundpainting Orchestra - Holothuria (2016) [FLAC] {Aut}\06 - Solid Particles.wav

Peak level 100.0 %
Extraction speed 2.9 X
Track quality 100.0 %
Test CRC F604956E
Copy CRC F604956E
Track not present in AccurateRip database
Copy OK

Track 7

Filename C:\My Documents\My FLAC\Berlin Soundpainting Orchestra - Holothuria (2016) [FLAC] {Aut}\07 - Hydrothermal Interaction.wav

Peak level 100.0 %
Extraction speed 2.7 X
Track quality 99.9 %
Test CRC 5754A4E5
Copy CRC 5754A4E5
Track not present in AccurateRip database
Copy OK

Track 8

Filename C:\My Documents\My FLAC\Berlin Soundpainting Orchestra - Holothuria (2016) [FLAC] {Aut}\08 - Supercritical Mass.wav

Peak level 100.0 %
Extraction speed 2.7 X
Track quality 99.9 %
Test CRC 2686FAFA
Copy CRC 2686FAFA
Track not present in AccurateRip database
Copy OK

Track 9

Filename C:\My Documents\My FLAC\Berlin Soundpainting Orchestra - Holothuria (2016) [FLAC] {Aut}\09 - Organic Matter.wav

Peak level 100.0 %
Extraction speed 3.3 X
Track quality 100.0 %
Test CRC C55FEF18
Copy CRC C55FEF18
Track not present in AccurateRip database
Copy OK

Track 10

Filename C:\My Documents\My FLAC\Berlin Soundpainting Orchestra - Holothuria (2016) [FLAC] {Aut}\10 - Ur-Tier.wav

Peak level 100.0 %
Extraction speed 3.7 X
Track quality 100.0 %
Test CRC F3366F9C
Copy CRC F3366F9C
Track not present in AccurateRip database
Copy OK


None of the tracks are present in the AccurateRip database

No errors occurred

End of status report

–– CUETools DB Plugin V2.1.6

[CTDB TOCID: RAYtOZ51_1D76HzK8NuWjBrTLdg-] found
Submit result: RAYtOZ51_1D76HzK8NuWjBrTLdg- has been confirmed
Track | CTDB Status
1 | (1/1) Accurately ripped
2 | (1/1) Accurately ripped
3 | (1/1) Accurately ripped
4 | (1/1) Accurately ripped
5 | (1/1) Accurately ripped
6 | (1/1) Accurately ripped
7 | (1/1) Accurately ripped
8 | (1/1) Accurately ripped
9 | (1/1) Accurately ripped
10 | (1/1) Accurately ripped


==== Log checksum 15CD4CCFA02D88C3BCD7310A647203F7575382B0BE56B7519FF868AC5AD34031 ====


Berlin Soundpainting Orchestra - Holothuria (2016) {Aut} **[RE-UP]**