Subcategories

Bad Religion - New Maps Of Hell (2007) **[RE-UP]**

Posted By: TestTickles
Bad Religion - New Maps Of Hell (2007) **[RE-UP]**

Bad Religion - New Maps Of Hell (2007)
EAC Rip | FLAC with CUE and log | no scans | 281 mb
MP3 CBR 320kbps | RAR | 85 mb
Genre: punk rock, alternative, indie rock

New Maps Of Hell is a guide to everyone who is interested in visiting hell for the first time. It is also the 2007 album by Bad Religion. This was released on 10 July, 2007.

Note: this was a library disc so no scans of the booklet or disc.

01. 52 Seconds
02. Heroes & Martyrs
03. Germs Of Perfection
04. New Dark Ages
05. Requiem For Dissent
06. Before You Die
07. Honest Goodbye
08. Dearly Beloved
09. Grains Of Wrath
10. Murder
11. Scrutiny
12. Prodigal Son
13. The Grand Delusion
14. Lost Pilgrim
15. Submission Complete
16. Fields Of Mars

–-
Greg Graffin-vocals
Brett Gurewitz-guitar
Brian Baker-guitar
Greg Hetson-guitar
Jay Bentley-bass
Brooks Wackerman-drums

Produced by Joe Barresi
Recorded February-April 2007 at Grandmaster Records, Ltd. in Hollywood, California

Mastered by Tom Baker at Precision Mastering

EAC extraction logfile from 14. September 2007, 5:48 for CD
Bad Religion / New Maps Of Hell

Used drive : LITE-ON DVDRW SOHW-1633S Adapter: 0 ID: 0
Read mode : Secure with NO C2, accurate stream, disable cache
Read offset correction : 12
Overread into Lead-In and Lead-Out : No

Used output format : Internal WAV Routines
44.100 Hz; 16 Bit; Stereo

Other options :
Fill up missing offset samples with silence : Yes
Delete leading and trailing silent blocks : No
Installed external ASPI interface


Track 1
Filename D:\FLAC\Bad Religion - New Maps Of Hell (2007) [FLAC]\01 - 52 Seconds.wav

Pre-gap length 0:00:02.00

Peak level 92.2 %
Track quality 100.0 %
Test CRC 12AFB3B3
Copy CRC 12AFB3B3
Copy OK

Track 2
Filename D:\FLAC\Bad Religion - New Maps Of Hell (2007) [FLAC]\02 - Heroes & Martyrs.wav

Pre-gap length 0:00:00.57

Peak level 100.0 %
Track quality 100.0 %
Test CRC 897D6E1D
Copy CRC 897D6E1D
Copy OK

Track 3
Filename D:\FLAC\Bad Religion - New Maps Of Hell (2007) [FLAC]\03 - Germs Of Perfection.wav

Peak level 100.0 %
Track quality 100.0 %
Test CRC 1442CF08
Copy CRC 1442CF08
Copy OK

Track 4
Filename D:\FLAC\Bad Religion - New Maps Of Hell (2007) [FLAC]\04 - New Dark Ages.wav

Peak level 100.0 %
Track quality 100.0 %
Test CRC BE9DE1FD
Copy CRC BE9DE1FD
Copy OK

Track 5
Filename D:\FLAC\Bad Religion - New Maps Of Hell (2007) [FLAC]\05 - Requiem For Dissent.wav

Peak level 98.4 %
Track quality 100.0 %
Test CRC 8B677960
Copy CRC 8B677960
Copy OK

Track 6
Filename D:\FLAC\Bad Religion - New Maps Of Hell (2007) [FLAC]\06 - Before You Die.wav

Peak level 97.4 %
Track quality 100.0 %
Test CRC 281367F5
Copy CRC 281367F5
Copy OK

Track 7
Filename D:\FLAC\Bad Religion - New Maps Of Hell (2007) [FLAC]\07 - Honest Goodbye.wav

Peak level 97.0 %
Track quality 100.0 %
Test CRC C0D42FA8
Copy CRC C0D42FA8
Copy OK

Track 8
Filename D:\FLAC\Bad Religion - New Maps Of Hell (2007) [FLAC]\08 - Dearly Beloved.wav

Peak level 100.0 %
Track quality 100.0 %
Test CRC 9A9E3E57
Copy CRC 9A9E3E57
Copy OK

Track 9
Filename D:\FLAC\Bad Religion - New Maps Of Hell (2007) [FLAC]\09 - Grains Of Wrath.wav

Peak level 98.8 %
Track quality 100.0 %
Test CRC 9326BF4C
Copy CRC 9326BF4C
Copy OK

Track 10
Filename D:\FLAC\Bad Religion - New Maps Of Hell (2007) [FLAC]\10 - Murder.wav

Peak level 100.0 %
Track quality 100.0 %
Test CRC C4BEBF6D
Copy CRC C4BEBF6D
Copy OK

Track 11
Filename D:\FLAC\Bad Religion - New Maps Of Hell (2007) [FLAC]\11 - Scrutiny.wav

Pre-gap length 0:00:00.28

Peak level 100.0 %
Track quality 100.0 %
Test CRC 849D8B8E
Copy CRC 849D8B8E
Copy OK

Track 12
Filename D:\FLAC\Bad Religion - New Maps Of Hell (2007) [FLAC]\12 - Prodigal Son.wav

Peak level 100.0 %
Track quality 99.9 %
Test CRC 6A4C03EF
Copy CRC 6A4C03EF
Copy OK

Track 13
Filename D:\FLAC\Bad Religion - New Maps Of Hell (2007) [FLAC]\13 - The Grand Delusion.wav

Pre-gap length 0:00:00.65

Peak level 100.0 %
Track quality 100.0 %
Test CRC 1F9FA3A9
Copy CRC 1F9FA3A9
Copy OK

Track 14
Filename D:\FLAC\Bad Religion - New Maps Of Hell (2007) [FLAC]\14 - Lost Pilgrim.wav

Peak level 100.0 %
Track quality 100.0 %
Test CRC 3C84B280
Copy CRC 3C84B280
Copy OK

Track 15
Filename D:\FLAC\Bad Religion - New Maps Of Hell (2007) [FLAC]\15 - Submission Complete.wav

Pre-gap length 0:00:00.22

Peak level 100.0 %
Track quality 100.0 %
Test CRC 64574FCE
Copy CRC 64574FCE
Copy OK

Track 16
Filename D:\FLAC\Bad Religion - New Maps Of Hell (2007) [FLAC]\16 - Fields Of Mars.wav

Peak level 100.0 %
Track quality 99.9 %
Test CRC DD8B45FF
Copy CRC DD8B45FF
Copy OK

No errors occured


End of status report


Bad Religion - New Maps Of Hell (2007) **[RE-UP]**