Subcategories

Battle Bratt - s/t (1989) {1991 U.S. Metal/Meldac Japan}

Posted By: TestTickles
Battle Bratt - s/t (1989) {1991 U.S. Metal/Meldac Japan}

Battle Bratt - s/t (1989) {1991 U.S. Metal/Meldac Japan}
EAC Rip | FLAC with CUE and LOG | scans | 286 mb
MP3 CBR 320 kbps | RAR | 96 mb
Genre: hard rock, heavy metal

Battle Bratt is the 1989 eponymous album by New York City hard rock band Battle Bratt. This is taken from the 1991 Japanese remaster reissued by U.S. Metal/Meldac Japan.

Battle Bratt - s/t (1989) {1991 U.S. Metal/Meldac Japan}

1. Winds Of Change (6:13)
2. Cruisin' For Action (3:20)
3. Don't Fight The Power (2:42)
4. You're The One (4:45)
5. Back To Love (4:41)
6. Heat Of The Night (5:34)
7. Rock'n'Roll Sin (4:26)
8. Lost Without Love (3:59)
9. Can't Let Your Love Go (5:31)

Exact Audio Copy V1.0 beta 3 from 29. August 2011

EAC extraction logfile from 24. January 2017, 11:19

Battle Bratt / s-t

Used drive : ASUS DRW-2014S1 Adapter: 1 ID: 0

Read mode : Secure
Utilize accurate stream : Yes
Defeat audio cache : Yes
Make use of C2 pointers : No

Read offset correction : 6
Overread into Lead-In and Lead-Out : No
Fill up missing offset samples with silence : Yes
Delete leading and trailing silent blocks : No
Null samples used in CRC calculations : Yes
Used interface : Native Win32 interface for Win NT & 2000

Used output format : User Defined Encoder
Selected bitrate : 128 kBit/s
Quality : High
Add ID3 tag : No
Command line compressor : C:\Program Files (x86)\Exact Audio Copy\Flac\flac.exe
Additional command line options : -V -8 -T "Date=%year%" -T "Genre=%genre%" %source%


TOC of the extracted CD

Track | Start | Length | Start sector | End sector
––––––––––––––––––––––––––––-
1 | 0:00.00 | 6:13.15 | 0 | 27989
2 | 6:13.15 | 3:20.52 | 27990 | 43041
3 | 9:33.67 | 2:42.23 | 43042 | 55214
4 | 12:16.15 | 4:45.27 | 55215 | 76616
5 | 17:01.42 | 4:41.00 | 76617 | 97691
6 | 21:42.42 | 5:34.35 | 97692 | 122776
7 | 27:17.02 | 4:26.03 | 122777 | 142729
8 | 31:43.05 | 3:59.10 | 142730 | 160664
9 | 35:42.15 | 5:31.65 | 160665 | 185554


Range status and errors

Selected range

Filename C:\cuntfist\FLAC\Battle Bratt - s-t (1989) [FLAC] {1991 U.S. Metal, Meldac Japan}\Battle Bratt - s-t.wav

Peak level 86.5 %
Extraction speed 7.4 X
Range quality 99.9 %
Copy CRC A9DAFCFD
Copy OK

No errors occurred


AccurateRip summary

Track 1 cannot be verified as accurate (confidence 2) [34DC44B7], AccurateRip returned [F2C47C73] (AR v2)
Track 2 cannot be verified as accurate (confidence 1) [669E52BB], AccurateRip returned [3E47759E] (AR v2)
Track 3 cannot be verified as accurate (confidence 2) [E6ACC959], AccurateRip returned [08BB2C9E] (AR v2)
Track 4 cannot be verified as accurate (confidence 2) [4E3012FF], AccurateRip returned [71F1B7AB] (AR v2)
Track 5 cannot be verified as accurate (confidence 2) [9EBD3A8C], AccurateRip returned [C74AD354] (AR v2)
Track 6 cannot be verified as accurate (confidence 2) [5DA60020], AccurateRip returned [D1B25E4E] (AR v2)
Track 7 cannot be verified as accurate (confidence 2) [A0135880], AccurateRip returned [22F7B45D] (AR v2)
Track 8 cannot be verified as accurate (confidence 2) [9C84F130], AccurateRip returned [DDC1312B] (AR v2)
Track 9 cannot be verified as accurate (confidence 2) [09D68B2B], AccurateRip returned [EB3EF05F] (AR v2)

No tracks could be verified as accurate
You may have a different pressing from the one(s) in the database

End of status report

==== Log checksum 3E6985FEC9C918C64724D30B34CCE1B0B4818E7C712369F3FE1CCC5C7645747E ====


Battle Bratt - s/t (1989) {1991 U.S. Metal/Meldac Japan}


Thank you to the original uploader.