Subcategories

Peter Brötzmann/Günter Sommer/Barre Phillips - Réservé (1989) {FMP}

Posted By: TestTickles
Peter Brötzmann/Günter Sommer/Barre Phillips - Réservé  (1989) {FMP}

Brötzmann/Sommer/Phillips - Réservé (1989) {FMP}
EAC Rip | FLAC with CUE and log | scans | 408 mb
MP3 CBR 320kbps | RAR | 181 mb
Genre: jazz, free jazz

Réservé is a 1989 collaborative album between Peter Brötzmann, Günter Sommer and Barre Phillips. This was released by the FMP label.
This 1989 recording by the duo of super-lunged saxophonist Peter Brötzman and percussionist Gunter Sommer with bassist supérieur Barre Phillips entering later was a reunion from the Total Music Meetings of the early '80s. None of the trio had played together for five years and — suddenly — here they were, together again for what proved to be a 75-minute set of spiritual and musical renewal. Phillips and Brötzman had been active in many ways during the break, but Sommers had explored a different path, one that landed him at the end of critics' barbs. This meeting was a chance to see not only if they could still play together and find the fire necessary to make sculptures of notes in midair, but to showcase how each man had grown as a musician. The first
half-hour that comprises the title track has the duo coming out screaming, puncturing the air with ribbons of sound with nails attached. This is where each man establishes the ground he will speak to the others from. Phillips, not yet present, must have been astonished at what he heard from bongos and trap drums to voices. No wonder he wanted in so badly. He enters in the second
half on "In Walked Beep." Phillips becomes the bridge by which true communication can happen. His bass playing filters each sound, each utterance, and mirrors it back to another player changed only by his own imagination, which clarifies — not distorts — the view of each soloist. This is not a cutting contest; this is a defining moment in the career of Sommers, who has more fire in his belly here that he had exhibited in the previous ten years combined. Phillips is the reason, the waterbearer who offered a safety net and a ledge to walk out on. This is what Coltrane talked about when he spoke of music that transcended music and became a cosmic language. The only difference being that, in these three men, there is no need for the cosmos when the earth is so full of passionate, unspeakable forces that need to be given utterance. By the end of the set, a short eight-minute improv named after some cigars Sommers had given Brötzman, the bridges are built, the towns erected, and the mountains moved. Communication has come from the silences of isolation and entered into the community of sound. Not a miracle, but an accomplishment to be sure.

Peter Brötzmann/Günter Sommer/Barre Phillips - Réservé  (1989) {FMP}

1. Reserve (31:05)
2. On Walked Beep (35:02)
3. Joya de Nicaragua (8:35)

Peter Brötzmann-Clarinet (Bass), Sax (Alto), Sax (Baritone), Sax (Bass), Sax (Tenor)
Barre Phillips-Bass, Double Bass
Günter Sommer-Percussion, Drums

Produced by Jost Gebers
Recorded by Eberhard Bingel & Jost Gebers

Recorded live during the Total Music Meeting on 4 November, 1988 at the Quartier Latin in Berlin

Peter Brötzmann/Günter Sommer/Barre Phillips - Réservé  (1989) {FMP}


EAC extraction logfile from 24. March 2006, 17:27 for CD
Brotzmann - Sommer - Phillips / Reserve

Used drive : LITE-ON LTR-52327S Adapter: 3 ID: 2
Read mode : Secure with NO C2, accurate stream, disable cache
Read offset correction : 6
Overread into Lead-In and Lead-Out : No

Used output format : Internal WAV Routines
44.100 Hz; 16 Bit; Stereo

Other options :
Fill up missing offset samples with silence : Yes
Delete leading and trailing silent blocks : No
Native Win32 interface for Win NT & 2000


Track 1
Filename C:\FLAC\Brötzmann, Sommer, Phillips - Réservé (1989) [FLAC] {FMP}\01 - Reserve.wav

Pre-gap length 0:00:02.00

Peak level 80.8 %
Track quality 99.9 %
Test CRC BF1D94FA
Copy CRC BF1D94FA
Copy OK

Track 2
Filename C:\FLAC\Brötzmann, Sommer, Phillips - Réservé (1989) [FLAC] {FMP}\02 - On Walked Beep.wav

Peak level 89.0 %
Track quality 99.9 %
Test CRC DFE7B522
Copy CRC DFE7B522
Copy OK

Track 3
Filename C:\FLAC\Brötzmann, Sommer, Phillips - Réservé (1989) [FLAC] {FMP}\03 - Joya De Nicarugua.wav

Peak level 59.6 %
Track quality 100.0 %
Test CRC BED97F15
Copy CRC BED97F15
Copy OK

No errors occured


End of status report


Peter Brötzmann/Günter Sommer/Barre Phillips - Réservé  (1989) {FMP}


Thank you to the original uploader.