Subcategories

VA - Brazil Classics 2: O Samba (1989) {Luaka Bop} **[RE-UP]**

Posted By: TestTickles
VA - Brazil Classics 2: O Samba (1989) {Luaka Bop} **[RE-UP]**

VA - Brazil Classics 2: O Samba (1989) {Luaka Bop}
EAC Rip | FLAC with CUE and log | scans | 363 mb
MP3 CBR 320kbps | RAR | 159 mb
Genre: Braziliam, samba, world

Brazil Classics 2: O Samba is a 1989 compilation CD from the Luaka Bop label. It consists of samba variations from Brazil, compiled by David Byrne of the Talking Heads.
This is a compilation of samba from the collecting hands of David Byrne of Talking Heads fame. The selections primarily focus on the modern forms of the genre, more specifically on the studio end of the spectrum, with little or no relation to the large-scale productions associated with Carnaval in Rio. There are bits of reference to the classic sambas of the '60s in the songs here, and explorations into jazz on the side. Nods to Afro-Cuban influences are thick in the lyrics, going so far as to have a full song from the Candomble traditions based on the Yoruba orishas. Beyond this, though, there's a whole range of modern Brazilian music present in the background of these tracks, as slighter influences from MPB and Tropicalia quietly creep in now and then. The main force here though is the creative energy of a number of newer samba composers, forming exceptional works for the various singers. It can range from frenetic to extremely relaxed, but it's always solid music. It's the range of coverage, perhaps, that makes the album worth hearing. As such, it makes an outstanding jumping-off point for further listening in the realm of the samba.

VA - Brazil Classics 2: O Samba (1989) {Luaka Bop} **[RE-UP]**

01. Clara Nunes - Deusa Dos Orixás
02. Clara Nunes - Ijexá (Filhos De Gandhy)
03. Zeca Pagodinho - S.P.C.
04. Alcione - Sufoco
05. Ciro Monteiro - Formosa
06. Alcione - Olerê Camará
07. Beth Carvalho - O Encanto Do Gantois
08. Neguinho da Beija Flor - Aldeia De Okarimbé
09. Chico da Silva - E Preciso Muito Amor
10. Almir Guineto - Caxambu
11. Almir Guineto - Quem Me Guia
12. Agepe - Ela Nao Gosta De Mim
13. Martinho da Vila - Claustrofobia
14. Martinho da Vila - Batuco No Chão
15. Paulinho da Viola - Sarau Para Ramadés

EAC extraction logfile from 22. December 2006, 16:23 for CD
Various Artists / Brazil Classics 2, O Samba

Used drive : LITE-ON DVDRW SOHW-1633S Adapter: 0 ID: 0
Read mode : Secure with NO C2, accurate stream, disable cache
Read offset correction : 12
Overread into Lead-In and Lead-Out : No

Used output format : Internal WAV Routines
44.100 Hz; 16 Bit; Stereo

Other options :
Fill up missing offset samples with silence : Yes
Delete leading and trailing silent blocks : No
Installed external ASPI interface


Track 1
Filename D:\FLAC\VA - Brazil Classics 2, O Samba (1989) [FLAC] {Luaka Bop}\01 - Clara Nunes - Deusa Dos Orixas.wav

Pre-gap length 0:00:02.44

Peak level 100.0 %
Track quality 100.0 %
Test CRC 393EDB0B
Copy CRC 393EDB0B
Copy OK

Track 2
Filename D:\FLAC\VA - Brazil Classics 2, O Samba (1989) [FLAC] {Luaka Bop}\02 - Clara Nunes - Ijexa (Filhos De Gandhy).wav

Pre-gap length 0:00:02.56

Peak level 93.4 %
Track quality 100.0 %
Test CRC BC9200F9
Copy CRC BC9200F9
Copy OK

Track 3
Filename D:\FLAC\VA - Brazil Classics 2, O Samba (1989) [FLAC] {Luaka Bop}\03 - Zeca Pagodinho - S.P.C..wav

Pre-gap length 0:00:01.26

Peak level 80.0 %
Track quality 100.0 %
Test CRC 3ACD74AB
Copy CRC 3ACD74AB
Copy OK

Track 4
Filename D:\FLAC\VA - Brazil Classics 2, O Samba (1989) [FLAC] {Luaka Bop}\04 - Alcione - Sufoco.wav

Pre-gap length 0:00:02.00

Peak level 88.4 %
Track quality 99.9 %
Test CRC 7DED3FBC
Copy CRC 7DED3FBC
Copy OK

Track 5
Filename D:\FLAC\VA - Brazil Classics 2, O Samba (1989) [FLAC] {Luaka Bop}\05 - Ciro Monteiro - Formosa.wav

Pre-gap length 0:00:01.90

Peak level 75.8 %
Track quality 100.0 %
Test CRC 286273B2
Copy CRC 286273B2
Copy OK

Track 6
Filename D:\FLAC\VA - Brazil Classics 2, O Samba (1989) [FLAC] {Luaka Bop}\06 - Alcione - Olere Camara.wav

Peak level 91.0 %
Track quality 99.9 %
Test CRC A43132AD
Copy CRC A43132AD
Copy OK

Track 7
Filename D:\FLAC\VA - Brazil Classics 2, O Samba (1989) [FLAC] {Luaka Bop}\07 - Beth Carvalho - O Encanto Do Gantois.wav

Pre-gap length 0:00:01.46

Peak level 88.9 %
Track quality 100.0 %
Test CRC 43FA64D8
Copy CRC 43FA64D8
Copy OK

Track 8
Filename D:\FLAC\VA - Brazil Classics 2, O Samba (1989) [FLAC] {Luaka Bop}\08 - Neguinho da Beija Flor - Aldeia De Okarimbe.wav

Pre-gap length 0:00:02.77

Peak level 100.0 %
Track quality 100.0 %
Test CRC 34A9CD6D
Copy CRC 34A9CD6D
Copy OK

Track 9
Filename D:\FLAC\VA - Brazil Classics 2, O Samba (1989) [FLAC] {Luaka Bop}\09 - Chico da Silva - E Preciso Muito Amor.wav

Pre-gap length 0:00:02.56

Peak level 79.8 %
Track quality 100.0 %
Test CRC 31372733
Copy CRC 31372733
Copy OK

Track 10
Filename D:\FLAC\VA - Brazil Classics 2, O Samba (1989) [FLAC] {Luaka Bop}\10 - Almir Guineto - Caxambu.wav

Pre-gap length 0:00:02.17

Peak level 66.8 %
Track quality 99.9 %
Test CRC BC8F56CF
Copy CRC BC8F56CF
Copy OK

Track 11
Filename D:\FLAC\VA - Brazil Classics 2, O Samba (1989) [FLAC] {Luaka Bop}\11 - Almir Guineto - Quem Me Guia.wav

Pre-gap length 0:00:02.73

Peak level 89.7 %
Track quality 100.0 %
Test CRC 04C065B3
Copy CRC 04C065B3
Copy OK

Track 12
Filename D:\FLAC\VA - Brazil Classics 2, O Samba (1989) [FLAC] {Luaka Bop}\12 - Agepe - Ela Nao Gosta De Mim.wav

Pre-gap length 0:00:02.26

Peak level 100.0 %
Track quality 99.9 %
Test CRC 0C0DEBE5
Copy CRC 0C0DEBE5
Copy OK

Track 13
Filename D:\FLAC\VA - Brazil Classics 2, O Samba (1989) [FLAC] {Luaka Bop}\13 - Martinho da Vila - Claustrofobia.wav

Pre-gap length 0:00:02.80

Peak level 65.0 %
Track quality 99.9 %
Test CRC 36A6E7F2
Copy CRC 36A6E7F2
Copy OK

Track 14
Filename D:\FLAC\VA - Brazil Classics 2, O Samba (1989) [FLAC] {Luaka Bop}\14 - Martinho da Vila - Batuco No Chao.wav

Pre-gap length 0:00:00.46

Peak level 72.0 %
Track quality 100.0 %
Test CRC 01B77ADE
Copy CRC 01B77ADE
Copy OK

Track 15
Filename D:\FLAC\VA - Brazil Classics 2, O Samba (1989) [FLAC] {Luaka Bop}\15 - Paulinho da Viola - Sarau Para Ramades.wav

Pre-gap length 0:00:00.13

Peak level 77.8 %
Track quality 100.0 %
Test CRC 6EDE86BD
Copy CRC 6EDE86BD
Copy OK

No errors occured


End of status report


VA - Brazil Classics 2: O Samba (1989) {Luaka Bop} **[RE-UP]**


Check out other titles in my Avaxhome blog