Subcategories

Buddy Rich/Maynard Ferguson - Two Big Bands Play Selections From West Side Story & Other Delights (1991)

Posted By: TestTickles
Buddy Rich/Maynard Ferguson - Two Big Bands Play Selections From West Side Story & Other Delights (1991)

Buddy Rich/Maynard Ferguson - Two Big Bands Play Selections From West Side Story & Other Delights (1991)
EAC Rip | FLAC with CUE and log | scans | 328 mb
MP3 CBR 320kbps | RAR | 125 mb
Genre: jazz. big band

Two Big Bands Play Selections From West Side Story & Other Delights is a 1991 album by Buddy Rich and Maynard Ferguson. It features a series of songs with each musician heading their own band. This was released by LRC Ltd.

Buddy Rich/Maynard Ferguson - Two Big Bands Play Selections From West Side Story & Other Delights (1991)

Buddy Rich
1. West Side Story
2. Kilimanjaro Cookout
3. Prelude To A Kiss
4. Waltz Of The Mushroom Hunters

Maynard Ferguson
5. Pilatus
6. Foggy Night
7. Maria
8. Got The Spirit
9. At The Sound Of The Trumpet

Exact Audio Copy V1.1 from 23. June 2015

EAC extraction logfile from 12. May 2017, 12:48

Buddy Rich/Maynard Ferguson / Two Big Bands Play Selections From West Side Story & Other

Delights

Used drive : TEAC DVD-ROM DV-28SW Adapter: 1 ID: 0

Read mode : Secure
Utilize accurate stream : Yes
Defeat audio cache : Yes
Make use of C2 pointers : No

Read offset correction : 6
Overread into Lead-In and Lead-Out : No
Fill up missing offset samples with silence : Yes
Delete leading and trailing silent blocks : No
Null samples used in CRC calculations : Yes
Used interface : Native Win32 interface for Win NT & 2000
Gap handling : Appended to previous track

Used output format : Internal WAV Routines
Sample format : 44.100 Hz; 16 Bit; Stereo


TOC of the extracted CD

Track | Start | Length | Start sector | End sector
––––––––––––––––––––––––––––-
1 | 0:00.00 | 5:52.00 | 0 | 26399
2 | 5:52.00 | 6:17.18 | 26400 | 54692
3 | 12:09.18 | 3:34.20 | 54693 | 70762
4 | 15:43.38 | 7:16.12 | 70763 | 103474
5 | 22:59.50 | 4:41.70 | 103475 | 124619
6 | 27:41.45 | 5:07.03 | 124620 | 147647
7 | 32:48.48 | 3:53.00 | 147648 | 165122
8 | 36:41.48 | 9:25.32 | 165123 | 207529
9 | 46:07.05 | 6:24.35 | 207530 | 236364


Track 1

Filename C:\My Documents\My FLAC\Buddy Rich, Maynard Ferguson - Two Big Bands Play

Selections From West Side Story & Other Delights (1991) [FLAC]\01 - Buddy Rich - West

Side Story.wav

Pre-gap length 0:00:02.00

Peak level 89.1 %
Extraction speed 3.0 X
Track quality 100.0 %
Test CRC 7C6FBE9B
Copy CRC 7C6FBE9B
Cannot be verified as accurate (confidence 5) [715700C3], AccurateRip returned

[14A3AA71] (AR v2)
Copy OK

Track 2

Filename C:\My Documents\My FLAC\Buddy Rich, Maynard Ferguson - Two Big Bands Play

Selections From West Side Story & Other Delights (1991) [FLAC]\02 - Buddy Rich -

Kilimanjaro Cookout.wav

Pre-gap length 0:00:03.20

Peak level 82.2 %
Extraction speed 3.5 X
Track quality 100.0 %
Test CRC 0D6F61DF
Copy CRC 0D6F61DF
Cannot be verified as accurate (confidence 5) [4464E34E], AccurateRip returned

[D605CD37] (AR v2)
Copy OK

Track 3

Filename C:\My Documents\My FLAC\Buddy Rich, Maynard Ferguson - Two Big Bands Play

Selections From West Side Story & Other Delights (1991) [FLAC]\03 - Buddy Rich - Prelude

To A Kiss.wav

Pre-gap length 0:00:03.23

Peak level 83.8 %
Extraction speed 3.6 X
Track quality 100.0 %
Test CRC D6BFE4B2
Copy CRC D6BFE4B2
Cannot be verified as accurate (confidence 5) [C31413E5], AccurateRip returned

[E8B987F2] (AR v2)
Copy OK

Track 4

Filename C:\My Documents\My FLAC\Buddy Rich, Maynard Ferguson - Two Big Bands Play

Selections From West Side Story & Other Delights (1991) [FLAC]\04 - Buddy Rich - Waltz

Of The Mushroom Hunters.wav

Pre-gap length 0:00:03.25

Peak level 78.3 %
Extraction speed 4.2 X
Track quality 100.0 %
Test CRC 651EBB4E
Copy CRC 651EBB4E
Cannot be verified as accurate (confidence 5) [227F4960], AccurateRip returned

[F6649A4B] (AR v2)
Copy OK

Track 5

Filename C:\My Documents\My FLAC\Buddy Rich, Maynard Ferguson - Two Big Bands Play

Selections From West Side Story & Other Delights (1991) [FLAC]\05 - Maynard Ferguson -

Pilatus.wav

Pre-gap length 0:00:03.17

Peak level 82.8 %
Extraction speed 4.3 X
Track quality 100.0 %
Test CRC 4C21D717
Copy CRC 4C21D717
Cannot be verified as accurate (confidence 5) [5C7039D0], AccurateRip returned

[2F78367D] (AR v2)
Copy OK

Track 6

Filename C:\My Documents\My FLAC\Buddy Rich, Maynard Ferguson - Two Big Bands Play

Selections From West Side Story & Other Delights (1991) [FLAC]\06 - Maynard Ferguson -

Foggy Night.wav

Pre-gap length 0:00:03.25

Peak level 73.2 %
Extraction speed 4.6 X
Track quality 100.0 %
Test CRC 2D586B38
Copy CRC 2D586B38
Cannot be verified as accurate (confidence 5) [7D76B5A3], AccurateRip returned

[99577FD2] (AR v2)
Copy OK

Track 7

Filename C:\My Documents\My FLAC\Buddy Rich, Maynard Ferguson - Two Big Bands Play

Selections From West Side Story & Other Delights (1991) [FLAC]\07 - Maynard Ferguson -

Maria.wav

Pre-gap length 0:00:03.20

Peak level 78.6 %
Extraction speed 4.6 X
Track quality 100.0 %
Test CRC 1D610CF5
Copy CRC 1D610CF5
Cannot be verified as accurate (confidence 4) [7427293A], AccurateRip returned

[B89DB158] (AR v2)
Copy OK

Track 8

Filename C:\My Documents\My FLAC\Buddy Rich, Maynard Ferguson - Two Big Bands Play

Selections From West Side Story & Other Delights (1991) [FLAC]\08 - Maynard Ferguson -

Got The Spirit.wav

Pre-gap length 0:00:03.18

Peak level 67.0 %
Extraction speed 5.4 X
Track quality 100.0 %
Test CRC 84079824
Copy CRC 84079824
Cannot be verified as accurate (confidence 4) [B0E1959E], AccurateRip returned

[89F79890] (AR v2)
Copy OK

Track 9

Filename C:\My Documents\My FLAC\Buddy Rich, Maynard Ferguson - Two Big Bands Play

Selections From West Side Story & Other Delights (1991) [FLAC]\09 - Maynard Ferguson -

At The Sound Of The Trumpet.wav

Pre-gap length 0:00:03.22

Peak level 64.7 %
Extraction speed 4.9 X
Track quality 99.9 %
Test CRC 5727AF5F
Copy CRC 5727AF5F
Cannot be verified as accurate (confidence 4) [749660AE], AccurateRip returned

[EBBD8C1B] (AR v2)
Copy OK


No tracks could be verified as accurate
You may have a different pressing from the one(s) in the database

No errors occurred

End of status report

–– CUETools DB Plugin V2.1.6

[CTDB TOCID: mPrE6CLq29ForXkG3cWJRQXVmA8-] found
Submit result: mPrE6CLq29ForXkG3cWJRQXVmA8- has been confirmed
Track | CTDB Status
1 | (7/7) Accurately ripped
2 | (7/7) Accurately ripped
3 | (7/7) Accurately ripped
4 | (7/7) Accurately ripped
5 | (7/7) Accurately ripped
6 | (7/7) Accurately ripped
7 | (7/7) Accurately ripped
8 | (7/7) Accurately ripped
9 | (7/7) Accurately ripped


==== Log checksum 1BB4559F87B1866F9CB97959301F3982827965568123CEDB03DF8F5180EB5555 ====


Buddy Rich/Maynard Ferguson - Two Big Bands Play Selections From West Side Story & Other Delights (1991)