Tags
Language
Tags

Burzum - Fallen (2011) {Byelobog Productions}

Posted By: TestTickles
Burzum - Fallen (2011) {Byelobog Productions}

Burzum - Fallen (2011) {Byelobog Productions}
EAC Rip | FLAC with CUE and LOG | scans | 371 mb
MP3 CBR 320 kbps | RAR | 129 mb
Genre: black metal, rock

Fallen is a 2011 solo project by Norwegian black metal artist Varg Vikernes. This was released by Byelobog Productions.

Burzum - Fallen (2011) {Byelobog Productions}

1. Fra Verdenstreet (1:03)
2. Jeg Faller (7:51)
3. Valen (9:22)
4. Vanvidd (7:06)
5. Enhver Til Sitt (6:16)
6. Budstikken (10:10)
7. Til Hel Og Tilbake Igjen (5:57)

Exact Audio Copy V0.99 prebeta 5 from 4. May 2009

Отчёт EAC об извлечении, выполненном 8. Декабрь 2011, 20:10

Burzum / Fallen

Дисковод: ASUS DRW-24B3ST Adapter: 5 ID: 0

Режим чтения : Достоверность
Использование точного потока : Да
Отключение кэша аудио : Да
Использование указателей C2 : Нет

Коррекция смещения при чтении : 6
Способность читать области Lead-in и Lead-out : Нет
Заполнение пропущенных сэмплов тишиной : Да
Удаление блоков с тишиной в начале и конце : Нет
При вычислениях CRC использовались нулевые сэмплы : Да
Интерфейс : Установленный внешний ASPI-интерфейс

Выходной формат : Пользовательский кодировщик
Выбранный битрейт : 768 kBit/s
Качество : Высокий
Добавление ID3-тэга : Нет
Утилита сжатия : C:\Program Files\Exact Audio Copy\FLAC\FLAC.EXE
Дополнительные параметры : -6 -V -T "ARTIST=%a" -T "TITLE=%t" -T "ALBUM=%g" -T "DATE=%y" -T "TRACKNUMBER=%n" -T "GENRE=%m" -T "COMMENT=%e" %s -o %d

TOC извлечённого CD

Трек | Старт | Длительность | Начальный сектор | Конечный сектор
––––––––––––––––––––––––––––––––––-
1 | 0:00.00 | 1:03.36 | 0 | 4760
2 | 1:03.36 | 7:50.38 | 4761 | 40048
3 | 8:53.74 | 9:21.43 | 40049 | 82166
4 | 18:15.42 | 7:06.32 | 82167 | 114148
5 | 25:21.74 | 6:16.28 | 114149 | 142376
6 | 31:38.27 | 10:10.17 | 142377 | 188143
7 | 41:48.44 | 5:57.33 | 188144 | 214951

Характеристики диапазона извлечения и сообщения об ошибках

Выбранный диапазон

Имя файла C:\cuntfist\FLAC\Burzum - Fallen (2011) {Byelobog Productions}\Burzum - Fallen.wav

Пиковый уровень 98.7 %
Качество диапазона 100.0 %
CRC теста 1808ABD8
CRC копии 1808ABD8
Копирование… OK

Ошибок не произошло

AccurateRip: сводка

Трек 1 точное извлечение (доверие 5) [CD2CC763]
Трек 2 точное извлечение (доверие 5) [BA1CA382]
Трек 3 точное извлечение (доверие 5) [D9D3818B]
Трек 4 точное извлечение (доверие 5) [79375ED4]
Трек 5 точное извлечение (доверие 5) [B6241C13]
Трек 6 точное извлечение (доверие 5) [D7704A2C]
Трек 7 точное извлечение (доверие 5) [43946A38]

Все треки извлечены точно

Конец отчёта


Burzum - Fallen (2011) {Byelobog Productions}


Thank you to the original uploader.