Subcategories

Buzzov•en - Unwilling To Explain (EP) (1994) {Allied Recordings}

Posted By: TestTickles
Buzzov•en - Unwilling To Explain (EP) (1994) {Allied Recordings}

Buzzov•en - Unwilling To Explain (EP) (1994) {Allied Recordings}
EAC Rip | FLAC with CUE and log | scans | 180 mb
MP3 CBR 320kbps | RAR | 84 mb
Genre: indie rock, sludge metal

Unwilling To Explain is a 1994 EP by North Carolina sludge metal band Buzzov•en. This actually features two EP's, a 4-song Unwilling To Explain 7" EP where the band expanded from a trio to a quartet, along with the group's first 7" EP released in 1992 when they were still a trio, Wound. It's a way to hear an older version of Buzzov•en with what became the "new" Buzzov•en. This was released by Allied Recordings.

Buzzov•en - Unwilling To Explain (EP) (1994) {Allied Recordings}

1. Behaved
2. Done
3. Hollow
4. Aching Improv #13
5. I Never
6. Proven Wrong
7. Blinded
8. Scrunge

LeDarrell-bass (tracks 1-4)
Kirk (Fisher)-guitar, vocals (all tracks)
Ash Lee (Ashley Williamson)-drums (tracks 1-4)
Little Buddy (Apostolis)-guitar (tracks 1-4)

Scott (Majors)-drums (tracks 5-8)
Brian (Hill)-bass (tracks 5-8)

Tracks 1-4 produced by Buzzov•en
Engineered by Maxa
Tracks 5-8 produced by Buzzov•en & Robbie Muller
Engineered by Jeff Murdock

Buzzov•en - Unwilling To Explain (EP) (1994) {Allied Recordings}


Exact Audio Copy V1.0 beta 6 from 9. April 2015

EAC extraction logfile from 7. May 2018, 10:26

Buzzov•en / Unwilling To Explain (EP)

Used drive : TSSTcorpDVD+-RW TS-L633C Adapter: 1 ID: 0

Read mode : Secure
Utilize accurate stream : Yes
Defeat audio cache : Yes
Make use of C2 pointers : No

Read offset correction : 6
Overread into Lead-In and Lead-Out : No
Fill up missing offset samples with silence : Yes
Delete leading and trailing silent blocks : No
Null samples used in CRC calculations : Yes
Used interface : Native Win32 interface for Win NT & 2000
Gap handling : Appended to previous track

Used output format : Internal WAV Routines
Sample format : 44.100 Hz; 16 Bit; Stereo


TOC of the extracted CD

Track | Start | Length | Start sector | End sector
––––––––––––––––––––––––––––-
1 | 0:00.00 | 2:27.00 | 0 | 11024
2 | 2:27.00 | 3:06.00 | 11025 | 24974
3 | 5:33.00 | 4:41.12 | 24975 | 46061
4 | 10:14.12 | 6:20.00 | 46062 | 74561
5 | 16:34.12 | 1:48.63 | 74562 | 82724
6 | 18:23.00 | 3:31.00 | 82725 | 98549
7 | 21:54.00 | 3:57.00 | 98550 | 116324
8 | 25:51.00 | 0:59.25 | 116325 | 120774


Track 1

Filename C:\My Documents\My FLAC\Buzzov•en - Unwilling To Explain (EP) (1994) [FLAC] {Allied Recordings}\01 - Behaved.wav

Pre-gap length 0:00:02.00

Peak level 100.0 %
Extraction speed 2.5 X
Track quality 100.0 %
Test CRC CE05CE6F
Copy CRC CE05CE6F
Accurately ripped (confidence 4) [B140F37A] (AR v2)
Copy OK

Track 2

Filename C:\My Documents\My FLAC\Buzzov•en - Unwilling To Explain (EP) (1994) [FLAC] {Allied Recordings}\02 - Done.wav

Peak level 100.0 %
Extraction speed 2.9 X
Track quality 100.0 %
Test CRC CCF8608E
Copy CRC CCF8608E
Accurately ripped (confidence 4) [52B61007] (AR v2)
Copy OK

Track 3

Filename C:\My Documents\My FLAC\Buzzov•en - Unwilling To Explain (EP) (1994) [FLAC] {Allied Recordings}\03 - Hollow.wav

Peak level 100.0 %
Extraction speed 2.8 X
Track quality 99.9 %
Test CRC C7627FA7
Copy CRC C7627FA7
Accurately ripped (confidence 4) [C0D69CCC] (AR v2)
Copy OK

Track 4

Filename C:\My Documents\My FLAC\Buzzov•en - Unwilling To Explain (EP) (1994) [FLAC] {Allied Recordings}\04 - Aching Improv #13.wav

Peak level 100.0 %
Extraction speed 3.7 X
Track quality 100.0 %
Test CRC 5200BD24
Copy CRC 5200BD24
Accurately ripped (confidence 4) [726E081D] (AR v2)
Copy OK

Track 5

Filename C:\My Documents\My FLAC\Buzzov•en - Unwilling To Explain (EP) (1994) [FLAC] {Allied Recordings}\05 - I Never.wav

Peak level 100.0 %
Extraction speed 3.1 X
Track quality 100.0 %
Test CRC 7E48BC0C
Copy CRC 7E48BC0C
Accurately ripped (confidence 4) [30BE621B] (AR v2)
Copy OK

Track 6

Filename C:\My Documents\My FLAC\Buzzov•en - Unwilling To Explain (EP) (1994) [FLAC] {Allied Recordings}\06 - Proven Wrong.wav

Peak level 100.0 %
Extraction speed 3.7 X
Track quality 100.0 %
Test CRC 5BB68A56
Copy CRC 5BB68A56
Accurately ripped (confidence 4) [5BB6EEB1] (AR v2)
Copy OK

Track 7

Filename C:\My Documents\My FLAC\Buzzov•en - Unwilling To Explain (EP) (1994) [FLAC] {Allied Recordings}\07 - Blinded.wav

Peak level 100.0 %
Extraction speed 4.0 X
Track quality 100.0 %
Test CRC 44D86585
Copy CRC 44D86585
Accurately ripped (confidence 4) [003A1E92] (AR v2)
Copy OK

Track 8

Filename C:\My Documents\My FLAC\Buzzov•en - Unwilling To Explain (EP) (1994) [FLAC] {Allied Recordings}\08 - Scrunge.wav

Peak level 90.2 %
Extraction speed 2.8 X
Track quality 100.0 %
Test CRC 9AE5B70B
Copy CRC 9AE5B70B
Accurately ripped (confidence 4) [600C1012] (AR v2)
Copy OK


All tracks accurately ripped

No errors occurred

End of status report

–– CUETools DB Plugin V2.1.6

[CTDB TOCID: GP.fZOcwYKxfwJJNNhUTu1ZneLU-] found
Submit result: GP.fZOcwYKxfwJJNNhUTu1ZneLU- has been confirmed
Track | CTDB Status
1 | (3/3) Accurately ripped
2 | (2/3) Accurately ripped
3 | (3/3) Accurately ripped
4 | (2/3) Accurately ripped
5 | (3/3) Accurately ripped
6 | (3/3) Accurately ripped
7 | (3/3) Accurately ripped
8 | (3/3) Accurately ripped


==== Log checksum 16D29123D83E7D3E69B5A033E8BF8BFB10A7A7BDD7C5E9EE069CF26D109B98E2 ====


Buzzov•en - Unwilling To Explain (EP) (1994) {Allied Recordings}