Subcategories

8:58 - 8:58 (2015) [2CD Deluxe Edition]

Posted By: gribovar
8:58 - 8:58 (2015) [2CD Deluxe Edition]

8:58 - 8:58 (2015) [2CD Deluxe Edition]
EAC Rip | FLAC (tracks+.cue+log) - 651 MB | MP3 CBR 320 kbps (LAME 3.93) - 256 MB | Covers (14 MB) included
Genre: Chillout, Downtempo, Techno, Ambient | RAR 3% Rec. | Label: ACP Recordings (ACPCD1502)

Paul Hartnoll (Orbital) is 8:58. Featuring a very impressive cast list of Robert Smith, Lianne Hall, Lisa Knapp, Ed Harcourt, The Unthanks and Fable. After a very successful reunion in 2008 that included sell out tours, headline appearances at festivals around the world, special guest Matt Smith as Doctor Who at Glastonbury, the Paralympics opening ceremony with Professor Stephen Hawking, and not forgetting the highly- acclaimed album Wonky, brothers Paul and Phil Hartnoll have decided to bring down the curtain on Orbitals remarkable 25 year career. And move on he certainly has. Paul Hartnoll has recorded his new album 8:58. The title of the album 8:58 comes from Paul's fascination with the theme of time. "I've always had a thing for clocks and for time as a powerful force - but also the way it oppresses you, explains Paul. It's one of those things I keep coming back to. For me, 8:58 is a moment of choice. It's almost 9 o'clock. Are you going to school? Are you going to this job you hate? Everybody faces that decision now and again. 8:58 am is when you've got to make up your mind." As Cillian Murphy says at the very beginning of 8:58: brace yourself for freedom. Now.
CD 1 Tracklist:
01. 8:58 (Featuring Cillian Murphy)
02. Please (Featuring Robert Smith & Lianne Hall)
03. The Past Now (Featuring Lisa Knapp)
04. Villain (Featuring Ed Harcourt)
05. The Clock (Featuring Cillian Murphy)
06. A Forest (Featuring The Unthanks)
07. Broken Up
08. Nearly There
09. Cemetery (Featuring Fable)

Total time: 48:58

CD 2 Tracklist:
01. 8:58 (Instrumental)
02. Please (Instrumental)
03. The Past Now (Instrumental)
04. Villain (Instrumental)
05. The Clock (Instrumental)
06. A Forest (Instrumental)
07. Broken Up
08. Nearly There
09. Cemetary (Instrumental)
10. Risky

Total time: 53:19

Exact Audio Copy V1.0 beta 3 from 29. August 2011

EAC extraction logfile from 30. September 2015, 9:00

8:58 / 8:58 [Deluxe Edition] CD1

Used drive : ASUS DRW-24F1ST a Adapter: 0 ID: 2

Read mode : Secure
Utilize accurate stream : Yes
Defeat audio cache : Yes
Make use of C2 pointers : No

Read offset correction : 6
Overread into Lead-In and Lead-Out : No
Fill up missing offset samples with silence : Yes
Delete leading and trailing silent blocks : No
Null samples used in CRC calculations : Yes
Used interface : Native Win32 interface for Win NT & 2000
Gap handling : Appended to previous track

Used output format : User Defined Encoder
Selected bitrate : 896 kBit/s
Quality : High
Add ID3 tag : No
Command line compressor : C:\Program Files\FLAC\flac.exe
Additional command line options : -6 -V -T "ARTIST=%artist%" -T "TITLE=%title%" -T "ALBUM=%albumtitle%" -T "DATE=%year%" -T "TRACKNUMBER=%tracknr%" -T "GENRE=%genre%" -T "COMMENT=%comment%" %hascover%–picture="%coverfile%"%hascover% %source% -o %dest%


TOC of the extracted CD

Track | Start | Length | Start sector | End sector
––––––––––––––––––––––––––––-
1 | 0:00.00 | 6:04.46 | 0 | 27345
2 | 6:04.46 | 6:34.61 | 27346 | 56956
3 | 12:39.32 | 6:36.04 | 56957 | 86660
4 | 19:15.36 | 3:50.52 | 86661 | 103962
5 | 23:06.13 | 3:09.20 | 103963 | 118157
6 | 26:15.33 | 5:42.60 | 118158 | 143867
7 | 31:58.18 | 4:20.44 | 143868 | 163411
8 | 36:18.62 | 5:01.56 | 163412 | 186042
9 | 41:20.43 | 7:37.09 | 186043 | 220326


Track 1

Filename G:\00-My CD\8-58\2015 8-58 [Deluxe Edition] CD1\01 - 8-58 - 8-58 (Featuring Cillian Murphy).wav

Pre-gap length 0:00:02.00

Peak level 98.8 %
Extraction speed 1.8 X
Track quality 100.0 %
Test CRC BEB87A46
Copy CRC BEB87A46
Accurately ripped (confidence 12) [6BDD4BA4] (AR v2)
Copy OK

Track 2

Filename G:\00-My CD\8-58\2015 8-58 [Deluxe Edition] CD1\02 - 8-58 - Please (Featuring Robert Smith & Lianne Hall).wav

Peak level 98.8 %
Extraction speed 2.2 X
Track quality 100.0 %
Test CRC 7DBE47EA
Copy CRC 7DBE47EA
Accurately ripped (confidence 12) [AA7D6D7D] (AR v2)
Copy OK

Track 3

Filename G:\00-My CD\8-58\2015 8-58 [Deluxe Edition] CD1\03 - 8-58 - The Past Now (Featuring Lisa Knapp).wav

Peak level 98.8 %
Extraction speed 2.2 X
Track quality 99.9 %
Test CRC 94AF158C
Copy CRC 94AF158C
Accurately ripped (confidence 12) [7B66F9DF] (AR v2)
Copy OK

Track 4

Filename G:\00-My CD\8-58\2015 8-58 [Deluxe Edition] CD1\04 - 8-58 - Villain (Featuring Ed Harcourt).wav

Peak level 98.8 %
Extraction speed 2.5 X
Track quality 100.0 %
Test CRC EF7F273A
Copy CRC EF7F273A
Accurately ripped (confidence 12) [95B87E9B] (AR v2)
Copy OK

Track 5

Filename G:\00-My CD\8-58\2015 8-58 [Deluxe Edition] CD1\05 - 8-58 - The Clock (Featuring Cillian Murphy).wav

Peak level 98.8 %
Extraction speed 2.5 X
Track quality 100.0 %
Test CRC 3FC91276
Copy CRC 3FC91276
Accurately ripped (confidence 12) [B9230C5B] (AR v2)
Copy OK

Track 6

Filename G:\00-My CD\8-58\2015 8-58 [Deluxe Edition] CD1\06 - 8-58 - A Forest (Featuring The Unthanks).wav

Peak level 98.8 %
Extraction speed 2.9 X
Track quality 100.0 %
Test CRC D6F63FF9
Copy CRC D6F63FF9
Accurately ripped (confidence 12) [88CAB7D1] (AR v2)
Copy OK

Track 7

Filename G:\00-My CD\8-58\2015 8-58 [Deluxe Edition] CD1\07 - 8-58 - Broken Up.wav

Peak level 98.8 %
Extraction speed 2.4 X
Track quality 99.9 %
Test CRC 0CE04159
Copy CRC 0CE04159
Accurately ripped (confidence 12) [0AD5E0CF] (AR v2)
Copy OK

Track 8

Filename G:\00-My CD\8-58\2015 8-58 [Deluxe Edition] CD1\08 - 8-58 - Nearly There.wav

Peak level 98.8 %
Extraction speed 2.5 X
Track quality 99.9 %
Test CRC 2BBABFFC
Copy CRC 2BBABFFC
Accurately ripped (confidence 12) [E56B4ACC] (AR v2)
Copy OK

Track 9

Filename G:\00-My CD\8-58\2015 8-58 [Deluxe Edition] CD1\09 - 8-58 - Cemetery (Featuring Fable).wav

Peak level 98.8 %
Extraction speed 3.5 X
Track quality 100.0 %
Test CRC E809BA76
Copy CRC E809BA76
Accurately ripped (confidence 11) [954BC95A] (AR v2)
Copy OK


All tracks accurately ripped

No errors occurred

End of status report

==== Log checksum 603E141F60EDDB54F3F8F03A8B6CF92AB32E808C5B84C3AF025BB5DB89B2D851 ====

[CUETools log; Date: 20.10.2017 0:30:06; Version: 2.1.4]
[CTDB TOCID: dzX3ziUCxyaTQTURyQ0cAkmYlYo-] found.
Track | CTDB Status
1 | (33/33) Accurately ripped
2 | (33/33) Accurately ripped
3 | (33/33) Accurately ripped
4 | (33/33) Accurately ripped
5 | (33/33) Accurately ripped
6 | (33/33) Accurately ripped
7 | (33/33) Accurately ripped
8 | (33/33) Accurately ripped
9 | (33/33) Accurately ripped
[AccurateRip ID: 0010e32f-0079f6a8-7c0b7909] found.
Track [ CRC | V2 ] Status
01 [a9b2c8f3|6bdd4ba4] (03+26/29) Accurately ripped
02 [f3d0849f|aa7d6d7d] (03+26/29) Accurately ripped
03 [6e265219|7b66f9df] (03+26/29) Accurately ripped
04 [f26fb9c2|95b87e9b] (03+26/29) Accurately ripped
05 [75ca2fa1|b9230c5b] (03+26/29) Accurately ripped
06 [7bb10dac|88cab7d1] (03+26/29) Accurately ripped
07 [213cb0f9|0ad5e0cf] (03+26/29) Accurately ripped
08 [42acd99c|e56b4acc] (03+26/29) Accurately ripped
09 [6167a661|954bc95a] (03+25/28) Accurately ripped

Track Peak [ CRC32 ] [W/O NULL] [ LOG ]
– 98,8 [A2F99613] [C2342BA6]
01 98,8 [BEB87A46] [A810797B] CRC32
02 98,8 [7DBE47EA] [17480525] CRC32
03 98,8 [94AF158C] [5AFA681E] CRC32
04 98,8 [EF7F273A] [C14F22D7] CRC32
05 98,8 [3FC91276] [CD655928] CRC32
06 98,8 [D6F63FF9] [CAE2C3BC] CRC32
07 98,8 [0CE04159] [D443EA91] CRC32
08 98,8 [2BBABFFC] [8AAB7F32] CRC32
09 98,8 [E809BA76] [11F1CC06] CRC32

Exact Audio Copy V1.0 beta 3 from 29. August 2011

EAC extraction logfile from 30. September 2015, 9:45

8:58 / 8:58 [Deluxe Edition] CD2

Used drive : ASUS DRW-24F1ST a Adapter: 0 ID: 2

Read mode : Secure
Utilize accurate stream : Yes
Defeat audio cache : Yes
Make use of C2 pointers : No

Read offset correction : 6
Overread into Lead-In and Lead-Out : No
Fill up missing offset samples with silence : Yes
Delete leading and trailing silent blocks : No
Null samples used in CRC calculations : Yes
Used interface : Native Win32 interface for Win NT & 2000
Gap handling : Appended to previous track

Used output format : User Defined Encoder
Selected bitrate : 896 kBit/s
Quality : High
Add ID3 tag : No
Command line compressor : C:\Program Files\FLAC\flac.exe
Additional command line options : -6 -V -T "ARTIST=%artist%" -T "TITLE=%title%" -T "ALBUM=%albumtitle%" -T "DATE=%year%" -T "TRACKNUMBER=%tracknr%" -T "GENRE=%genre%" -T "COMMENT=%comment%" %hascover%–picture="%coverfile%"%hascover% %source% -o %dest%


TOC of the extracted CD

Track | Start | Length | Start sector | End sector
––––––––––––––––––––––––––––-
1 | 0:00.00 | 6:26.69 | 0 | 29018
2 | 6:26.69 | 4:58.31 | 29019 | 51399
3 | 11:25.25 | 6:35.33 | 51400 | 81057
4 | 18:00.58 | 3:50.17 | 81058 | 98324
5 | 21:51.00 | 3:05.18 | 98325 | 112217
6 | 24:56.18 | 5:33.25 | 112218 | 137217
7 | 30:29.43 | 4:20.35 | 137218 | 156752
8 | 34:50.03 | 5:01.33 | 156753 | 179360
9 | 39:51.36 | 7:36.21 | 179361 | 213581
10 | 47:27.57 | 5:51.52 | 213582 | 239958


Track 1

Filename G:\00-My CD\8-58\2015 8-58 [Deluxe Edition] CD2\01 - 8-58 - 8-58 (Instrumental).wav

Pre-gap length 0:00:02.00

Peak level 98.8 %
Extraction speed 1.8 X
Track quality 100.0 %
Test CRC 2AD15F0A
Copy CRC 2AD15F0A
Accurately ripped (confidence 8) [EDE94E90] (AR v2)
Copy OK

Track 2

Filename G:\00-My CD\8-58\2015 8-58 [Deluxe Edition] CD2\02 - 8-58 - Please (Instrumental).wav

Peak level 98.8 %
Extraction speed 2.1 X
Track quality 100.0 %
Test CRC B7D70C06
Copy CRC B7D70C06
Accurately ripped (confidence 8) [5047CA43] (AR v2)
Copy OK

Track 3

Filename G:\00-My CD\8-58\2015 8-58 [Deluxe Edition] CD2\03 - 8-58 - The Past Now (Instrumental).wav

Peak level 98.8 %
Extraction speed 2.4 X
Track quality 100.0 %
Test CRC 5BC05766
Copy CRC 5BC05766
Accurately ripped (confidence 8) [0EF35003] (AR v2)
Copy OK

Track 4

Filename G:\00-My CD\8-58\2015 8-58 [Deluxe Edition] CD2\04 - 8-58 - Villain (Instrumental).wav

Peak level 98.8 %
Extraction speed 2.4 X
Track quality 100.0 %
Test CRC 7741ECB7
Copy CRC 7741ECB7
Accurately ripped (confidence 8) [CB3C2277] (AR v2)
Copy OK

Track 5

Filename G:\00-My CD\8-58\2015 8-58 [Deluxe Edition] CD2\05 - 8-58 - The Clock (Instrumental).wav

Peak level 98.8 %
Extraction speed 1.9 X
Track quality 99.9 %
Test CRC 429CB19F
Copy CRC 429CB19F
Accurately ripped (confidence 8) [CE5D0BA9] (AR v2)
Copy OK

Track 6

Filename G:\00-My CD\8-58\2015 8-58 [Deluxe Edition] CD2\06 - 8-58 - A Forest (Instrumental).wav

Peak level 98.8 %
Extraction speed 2.4 X
Track quality 99.9 %
Test CRC AA46C7FF
Copy CRC AA46C7FF
Accurately ripped (confidence 8) [09745AFD] (AR v2)
Copy OK

Track 7

Filename G:\00-My CD\8-58\2015 8-58 [Deluxe Edition] CD2\07 - 8-58 - Broken Up.wav

Peak level 98.8 %
Extraction speed 2.9 X
Track quality 100.0 %
Test CRC 343A2F75
Copy CRC 343A2F75
Accurately ripped (confidence 8) [99F51DE0] (AR v2)
Copy OK

Track 8

Filename G:\00-My CD\8-58\2015 8-58 [Deluxe Edition] CD2\08 - 8-58 - Nearly There.wav

Peak level 98.8 %
Extraction speed 2.5 X
Track quality 99.9 %
Test CRC 534F991A
Copy CRC 534F991A
Accurately ripped (confidence 8) [01F1498C] (AR v2)
Copy OK

Track 9

Filename G:\00-My CD\8-58\2015 8-58 [Deluxe Edition] CD2\09 - 8-58 - Cemetary (Instrumental).wav

Peak level 98.8 %
Extraction speed 3.4 X
Track quality 100.0 %
Test CRC 61648B8B
Copy CRC 61648B8B
Accurately ripped (confidence 8) [54858936] (AR v2)
Copy OK

Track 10

Filename G:\00-My CD\8-58\2015 8-58 [Deluxe Edition] CD2\10 - 8-58 - Risky.wav

Peak level 98.8 %
Extraction speed 3.6 X
Track quality 100.0 %
Test CRC BA1B8227
Copy CRC BA1B8227
Accurately ripped (confidence 8) [AAEAFD3E] (AR v2)
Copy OK


All tracks accurately ripped

No errors occurred

End of status report

==== Log checksum 59D063CD72E09879AD4580AE1B3405DABBA75B99ADC16F0A01D1B9B28CF5343A ====

[CUETools log; Date: 20.10.2017 0:31:13; Version: 2.1.4]
[CTDB TOCID: Q9XHpCf2hxtpxluqReJrMY8VwjA-] found.
Track | CTDB Status
1 | (23/23) Accurately ripped
2 | (23/23) Accurately ripped
3 | (23/23) Accurately ripped
4 | (23/23) Accurately ripped
5 | (23/23) Accurately ripped
6 | (23/23) Accurately ripped
7 | (23/23) Accurately ripped
8 | (23/23) Accurately ripped
9 | (23/23) Accurately ripped
10 | (23/23) Accurately ripped
[AccurateRip ID: 0013d1cd-009d4024-950c7f0a] found.
Track [ CRC | V2 ] Status
01 [352cc9f6|ede94e90] (02+19/21) Accurately ripped
02 [ae38e043|5047ca43] (02+19/21) Accurately ripped
03 [bc60f9d8|0ef35003] (02+19/21) Accurately ripped
04 [786f84c6|cb3c2277] (02+19/21) Accurately ripped
05 [3aaf51b1|ce5d0ba9] (02+19/21) Accurately ripped
06 [9bddb5fb|09745afd] (02+19/21) Accurately ripped
07 [4593a146|99f51de0] (02+19/21) Accurately ripped
08 [d4e6d676|01f1498c] (02+19/21) Accurately ripped
09 [ff517a31|54858936] (02+19/21) Accurately ripped
10 [94e8c1f5|aaeafd3e] (02+19/21) Accurately ripped

Track Peak [ CRC32 ] [W/O NULL] [ LOG ]
– 98,8 [DB101CF7] [A1623CD1]
01 98,8 [2AD15F0A] [9334A0BD] CRC32
02 98,8 [B7D70C06] [F532131C] CRC32
03 98,8 [5BC05766] [840A2937] CRC32
04 98,8 [7741ECB7] [1EBBDBC6] CRC32
05 98,8 [429CB19F] [6F21F4C7] CRC32
06 98,8 [AA46C7FF] [FE7B4DEB] CRC32
07 98,8 [343A2F75] [FBD4BAF6] CRC32
08 98,8 [534F991A] [DAD69ECD] CRC32
09 98,8 [61648B8B] [5BD20EB1] CRC32
10 98,8 [BA1B8227] [19E82506] CRC32

Thanks to Electrolight

See also:
Orbital - 3 Studio Albums (1994-1999)
Orbital - Orbital 20 (2009)