Subcategories

Bill Hart - Subject To Change (2008)

Posted By: TestTickles
Bill Hart - Subject To Change (2008)

Bill Hart - Subject To Change (2008)
EAC Rip | FLAC with CUE and log | scans | 264 mb
MP3 CBR 320kbps | RAR | 62 mb
Genre: jazz, jazz fusion, smooth jazz

Subject To Change is the 2008 album by jazz guitarist Bill Hart. He mixes up traditional jazz with jazz fusion and smooth jazz, displaying a nice range of diversity. This was released by BHM Records, which most likely stands for Bill Hart Music, which means this is self-released.

Bill Hart - Subject To Change (2008)

01. On My Way Home
02. Look Out For June
03. Jim Gilligan
04. Sara's Song
05. Anna Banana
06. Loose Gravel
07. Subject To Change
08. You're Next
09. Canadese Africano
10. What Are You Doing
11. This Is Why
12. Inside Out
13. Spazio Aperto
14. It's Working
15. Cerchi Nel Grano

Bill Hart-electric guitar, nylon string
Mike Stern-guitar (tracks 10 & 11)
Enrico Galetta-bass (tracks 1-3, 5-8, 12 & 14)
Gary Wilkins-bass (tracks 9-11, 13 & 15)
Tom Knight-drums (tracks 1-3, 5-8, 12 & 14)
Charles Marvray-drums (tracks 9, 13 & 15)
Jef Van Veen-drums (tracks 10 & 11)
Ahsa Ahla-percussions (tracks 2-3, 9, 13 & 15)

Produced & engineered by Bill Hart
Mixed & edited by Ryan Williams
Mastered by Rodney Mills

Bill Hart - Subject To Change (2008)


EAC extraction logfile from 3. June 2017, 21:20 for CD
Bill Hart / Subject To Change

Used drive : TSSTcorpDVD+-RW TS-H653B Adapter: 2 ID: 0
Read mode : Secure with NO C2, accurate stream, disable cache
Read offset correction : 6
Overread into Lead-In and Lead-Out : No

Used output format : Internal WAV Routines
44.100 Hz; 16 Bit; Stereo

Other options :
Fill up missing offset samples with silence : Yes
Delete leading and trailing silent blocks : No
Native Win32 interface for Win NT & 2000


Track 1
Filename C:\Documents and Settings\cuntfist\Desktop\FLAC's\34\Bill Hart - Subject To Change (2008)\01 - On My Way Home.wav

Pre-gap length 0:00:02.00

Peak level 99.3 %
Track quality 100.0 %
Test CRC DB0A540F
Copy CRC DB0A540F
Copy OK

Track 2
Filename C:\Documents and Settings\cuntfist\Desktop\FLAC's\34\Bill Hart - Subject To Change (2008)\02 - Look Out For June.wav

Pre-gap length 0:00:01.00

Peak level 99.4 %
Track quality 100.0 %
Test CRC EBB2B854
Copy CRC EBB2B854
Copy OK

Track 3
Filename C:\Documents and Settings\cuntfist\Desktop\FLAC's\34\Bill Hart - Subject To Change (2008)\03 - Jim Gilligan.wav

Pre-gap length 0:00:01.40

Peak level 99.1 %
Track quality 100.0 %
Test CRC 65C93FA0
Copy CRC 65C93FA0
Copy OK

Track 4
Filename C:\Documents and Settings\cuntfist\Desktop\FLAC's\34\Bill Hart - Subject To Change (2008)\04 - Sara's Song.wav

Pre-gap length 0:00:01.40

Peak level 99.1 %
Track quality 100.0 %
Test CRC 5BC4D85B
Copy CRC 5BC4D85B
Copy OK

Track 5
Filename C:\Documents and Settings\cuntfist\Desktop\FLAC's\34\Bill Hart - Subject To Change (2008)\05 - Anna Banana.wav

Pre-gap length 0:00:01.00

Peak level 99.4 %
Track quality 100.0 %
Test CRC A6BC0137
Copy CRC A6BC0137
Copy OK

Track 6
Filename C:\Documents and Settings\cuntfist\Desktop\FLAC's\34\Bill Hart - Subject To Change (2008)\06 - Loose Gravel.wav

Pre-gap length 0:00:01.60

Peak level 99.4 %
Track quality 99.9 %
Test CRC BE91632F
Copy CRC BE91632F
Copy OK

Track 7
Filename C:\Documents and Settings\cuntfist\Desktop\FLAC's\34\Bill Hart - Subject To Change (2008)\07 - Subject To Change.wav

Pre-gap length 0:00:01.60

Peak level 99.4 %
Track quality 100.0 %
Test CRC 7665B45F
Copy CRC 7665B45F
Copy OK

Track 8
Filename C:\Documents and Settings\cuntfist\Desktop\FLAC's\34\Bill Hart - Subject To Change (2008)\08 - You're Next.wav

Pre-gap length 0:00:02.00

Peak level 99.4 %
Track quality 100.0 %
Test CRC 026ACED4
Copy CRC 026ACED4
Copy OK

Track 9
Filename C:\Documents and Settings\cuntfist\Desktop\FLAC's\34\Bill Hart - Subject To Change (2008)\09 - Canadese Africano.wav

Pre-gap length 0:00:02.00

Peak level 99.4 %
Track quality 100.0 %
Test CRC F13C436C
Copy CRC F13C436C
Copy OK

Track 10
Filename C:\Documents and Settings\cuntfist\Desktop\FLAC's\34\Bill Hart - Subject To Change (2008)\10 - What Are You Doing.wav

Pre-gap length 0:00:01.00

Peak level 99.3 %
Track quality 100.0 %
Test CRC 369E303B
Copy CRC 369E303B
Copy OK

Track 11
Filename C:\Documents and Settings\cuntfist\Desktop\FLAC's\34\Bill Hart - Subject To Change (2008)\11 - This Is Why.wav

Pre-gap length 0:00:02.00

Peak level 99.1 %
Track quality 100.0 %
Test CRC 8329A377
Copy CRC 8329A377
Copy OK

Track 12
Filename C:\Documents and Settings\cuntfist\Desktop\FLAC's\34\Bill Hart - Subject To Change (2008)\12 - Inside Out.wav

Pre-gap length 0:00:01.40

Peak level 99.4 %
Track quality 99.9 %
Test CRC 935B26C3
Copy CRC 935B26C3
Copy OK

Track 13
Filename C:\Documents and Settings\cuntfist\Desktop\FLAC's\34\Bill Hart - Subject To Change (2008)\13 - Spazio Aperto.wav

Pre-gap length 0:00:01.40

Peak level 99.4 %
Track quality 100.0 %
Test CRC 662D0800
Copy CRC 662D0800
Copy OK

Track 14
Filename C:\Documents and Settings\cuntfist\Desktop\FLAC's\34\Bill Hart - Subject To Change (2008)\14 - It's Working.wav

Pre-gap length 0:00:01.60

Peak level 99.3 %
Track quality 100.0 %
Test CRC C986B824
Copy CRC C986B824
Copy OK

Track 15
Filename C:\Documents and Settings\cuntfist\Desktop\FLAC's\34\Bill Hart - Subject To Change (2008)\15 - Cerchi Nel Grano.wav

Pre-gap length 0:00:01.40

Peak level 99.4 %
Track quality 100.0 %
Test CRC 9C40C71E
Copy CRC 9C40C71E
Copy OK

No errors occured


End of status report


Bill Hart - Subject To Change (2008)