Subcategories

Billy Cobham, Steve Khan, Alphonso Johnson, Tom Scott - Alivemutherforya (1978) {2002 Legacy} **[RE-UP]**

Posted By: TestTickles
Billy Cobham, Steve Khan, Alphonso Johnson, Tom Scott - Alivemutherforya (1978) {2002 Legacy} **[RE-UP]**

Billy Cobham, Steve Khan, Alphonso Johnson, Tom Scott - Alivemutherforya (1978) {2002 Legacy}
EAC Rip | FLAC with CUE and log | scans | 273 mb
MP3 CBR 320kbps | RAR | 105 mb
Genre: jazz

Alivemutherforya is the 1978 album by Billy Cobham. Steve Khan, Alphonso Johnson, and Tom Scott, with help from Mark Soskin. Originally released on Columbia, this is a live recording and as the title explains, this is "a live mother for you". This is a Legacy CD released in 2002.

Billy Cobham, Steve Khan, Alphonso Johnson, Tom Scott - Alivemutherforya (1978) {2002 Legacy} **[RE-UP]**

1. "Anteres" - The Star (5:25)
2. Bahama Mama (8:22)
3. Shadows (7:43)
4. Some Punk Funk (4:23)
5. Spindrift (7:19)
6. On A Magic Carpet Ride (7:10)

Billy Cobham - percussion
Alphonso Johnson - electric bass, electric fretless bass, bass pedal synthesizer, electric stick
Steve Khan - electric guitar, acoustic guitar
Tom Scott - tenor saxophone, soprano saxophone, lyricon, percussion
Mark Soskin - acoustic piano, Fender Rhodes,clavinet, Arp Odessey, Mini-Moog, Arp String Emsemble

EAC extraction logfile from 15. February 2006, 17:18 for CD
Billy Cobham / Alivemutherforya

Used drive : TEAC CD-W524E Adapter: 1 ID: 0
Read mode : Secure with NO C2, accurate stream, disable cache
Read offset correction : 685
Overread into Lead-In and Lead-Out : No

Used output format : Internal WAV Routines
44.100 Hz; 16 Bit; Stereo

Other options :
Fill up missing offset samples with silence : Yes
Delete leading and trailing silent blocks : No
Installed external ASPI interface


Track 1
Filename N:\01 - 'Anteres' - The Star.wav

Pre-gap length 0:00:02.00

Peak level 92.3 %
Track quality 100.0 %
Test CRC DF8B4816
Copy CRC DF8B4816
Copy OK

Track 2
Filename N:\02 - Bahama Mama.wav

Peak level 91.1 %
Track quality 100.0 %
Test CRC 53F571E0
Copy CRC 53F571E0
Copy OK

Track 3
Filename N:\03 - Shadows.wav

Peak level 90.3 %
Track quality 100.0 %
Test CRC 894DCBFB
Copy CRC 894DCBFB
Copy OK

Track 4
Filename N:\04 - Some Punk Funk.wav

Peak level 92.3 %
Track quality 100.0 %
Test CRC 8EA1BE23
Copy CRC 8EA1BE23
Copy OK

Track 5
Filename N:\05 - Spindrift.wav

Peak level 82.9 %
Track quality 100.0 %
Test CRC C3E60C66
Copy CRC C3E60C66
Copy OK

Track 6
Filename N:\06 - On A Magic Carpet Ride.wav

Peak level 94.6 %
Track quality 99.9 %
Test CRC 3E0AFB3E
Copy CRC 3E0AFB3E
Copy OK

No errors occured


End of status report


Billy Cobham, Steve Khan, Alphonso Johnson, Tom Scott - Alivemutherforya (1978) {2002 Legacy} **[RE-UP]**


Thank you to the original uploader.