Subcategories

A Flock Of Seagulls - The Best Of A Flock Of Seagulls (1986)

Posted By: Designol
A Flock Of Seagulls - The Best Of A Flock Of Seagulls (1986)

A Flock Of Seagulls - The Best Of A Flock Of Seagulls (1986)
EAC | FLAC | Tracks (Cue&Log) ~ 382 Mb | Mp3 (CBR320) ~ 138 Mb | Scans included
New Wave, Synth-pop, Dance-Rock | Label: Jive, BMG | # 82876535732 | 00:58:42

The Best of A Flock of Seagulls is an excellent 12-track roundup of A Flock of Seagulls' best material. Their catalog wasn't particularly deep outside of the hits "Wishing (If I Had a Photograph of You)" and "I Ran (So Far Away)," but they did do some good new nomantic synth pop, particularly on cuts like "Nightmares," "A Space Age Love Song," and "Telecommunications," all of which are here. As a matter of fact, this really does contain all of the group's best material, and while new wave fetishists will likely go for the actual albums anyway, most listeners will be more than satisfied with this.

Review by Stephen Thomas Erlewine, Allmusic.com

If they were never as sublime as "Chewy Chewy," they were never as icky as "1, 2, 3, Red Light," and unlike the Ohio Express or the 1910 Fruitgum Co., they-wrote-all-the-songs-themselves. I might even claim that this was where the idiots took over the studio if I hadn't noticed that their weakest cut by far–1985's terminal "Who's That Girl (She's Got It)," designed to convince us that they're human beings–is the-one-they-produced-themselves.

Review by Robert Christgau (A-)

"And I ra-a-an, I ran so far awa-a-ay…." OK, now that you've got that stuck in your head for the rest of the day, you may as well go ahead and get the rest of the hits and misses from the most badly coifed outfit in synth-pop history. Frontman Mike Score, a former hairdresser, is responsible for this Liverpool band's worst and best aspects, the latter being a talent for almost painfully catchy pop melodies and synth hooks that bounce along nicely over gradually descending bass lines. In addition to the aforementioned "I Ran," this best-of sports two versions of the equally sublime "Wishing (If I Had a Photograph of You)" and a selection of tracks from AFOS's six-year career, including "It's Not Me Talking."

Review by Bill Forman

A Flock Of Seagulls - The Best Of A Flock Of Seagulls (1986)



Tracklist:

01. I Ran (5:08)
02. Space Age Love Song (3:49)
03. Telecommunication (2:31)
04. The More You Live, The More You Love (4:07)
05. Nightmares (4:39)
06. Wishing (If I Had A Photograph Of You) (5:30)
07. (It's Not Me) Talking (5:00)
08. Transfer Affection (5:22)
09. Who's That Girl (She's Got It) (4:16)
10. D.N.A. (2:29)
11. Wishing (If I Had A Photograph Of You) (Extended Version) (9:36)
12. The More You Live, The More You Love (Extended Version) (6:13)


Exact Audio Copy V1.0 beta 3 from 29. August 2011

Отчёт EAC об извлечении, выполненном 6. июня 2015, 19:24

A Flock Of Seagulls / The Best Of A Flock Of Seagulls

Дисковод: ASUS DRW-1814BLT Adapter: 4 ID: 0

Режим чтения : Достоверность
Использование точного потока : Да
Отключение кэша аудио : Да
Использование указателей C2 : Нет

Коррекция смещения при чтении : 6
Способность читать области Lead-in и Lead-out : Нет
Заполнение пропущенных сэмплов тишиной : Да
Удаление блоков с тишиной в начале и конце : Нет
При вычислениях CRC использовались нулевые сэмплы : Да
Интерфейс : Встроенный Win32-интерфейс для Win NT/2000
Обработка зазоров : Добавлено к предыдущему треку

Выходной формат : Пользовательский кодировщик
Выбранный битрейт : 128 kBit/s
Качество : Высокий
Добавление ID3-тега : Нет
Утилита сжатия : C:\Program Files\Exact Audio Copy\Flac\flac.exe
Дополнительные параметры : -V -8 -T "Genre=%genre%" -T "Artist=%artist%" -T "Title=%title%" -T "Album=%albumtitle%" -T "Date=%year%" -T "Tracknumber=%tracknr%" -T "Comment=EAC1.0b2 FLAC -8" %source%


TOC извлечённого CD

Трек | Старт | Длительность | Начальный сектор | Конечный сектор
––––––––––––––––––––––––––––––––––-
1 | 0:00.32 | 5:08.25 | 32 | 23156
2 | 5:08.57 | 3:48.60 | 23157 | 40316
3 | 8:57.42 | 2:31.35 | 40317 | 51676
4 | 11:29.02 | 4:06.68 | 51677 | 70194
5 | 15:35.70 | 4:39.07 | 70195 | 91126
6 | 20:15.02 | 5:30.35 | 91127 | 115911
7 | 25:45.37 | 5:00.33 | 115912 | 138444
8 | 30:45.70 | 5:22.22 | 138445 | 162616
9 | 36:08.17 | 4:15.65 | 162617 | 181806
10 | 40:24.07 | 2:29.03 | 181807 | 192984
11 | 42:53.10 | 9:36.02 | 192985 | 236186
12 | 52:29.12 | 6:13.10 | 236187 | 264171


Трек 1

Имя файла R:\Раздача 47\A Flock Of Seagulls - 1986 - The Best Of\01 I ran.wav

Длина предзазора 0:00:02.32

Пиковый уровень 98.6 %
Скорость извлечения 3.6 X
Качество трека 100.0 %
CRC теста 41BFE8DD
CRC копии 41BFE8DD
Точное извлечение (достоверность 3) [A8D547A1] (AR v2)
Копирование… OK

Трек 2

Имя файла R:\Раздача 47\A Flock Of Seagulls - 1986 - The Best Of\02 Space age love song.wav

Длина предзазора 0:00:00.70

Пиковый уровень 94.6 %
Скорость извлечения 3.9 X
Качество трека 100.0 %
CRC теста 8CC6B5B0
CRC копии 8CC6B5B0
Точное извлечение (достоверность 3) [DB15E20E] (AR v2)
Копирование… OK

Трек 3

Имя файла R:\Раздача 47\A Flock Of Seagulls - 1986 - The Best Of\03 Telecommunication.wav

Длина предзазора 0:00:02.16

Пиковый уровень 82.9 %
Скорость извлечения 3.9 X
Качество трека 100.0 %
CRC теста 96AE2DC0
CRC копии 96AE2DC0
Точное извлечение (достоверность 3) [A6E3E69A] (AR v2)
Копирование… OK

Трек 4

Имя файла R:\Раздача 47\A Flock Of Seagulls - 1986 - The Best Of\04 The more you live, the more you love.wav

Пиковый уровень 97.1 %
Скорость извлечения 4.5 X
Качество трека 100.0 %
CRC теста B664A483
CRC копии B664A483
Точное извлечение (достоверность 3) [D2668B5A] (AR v2)
Копирование… OK

Трек 5

Имя файла R:\Раздача 47\A Flock Of Seagulls - 1986 - The Best Of\05 Nightmares.wav

Пиковый уровень 78.8 %
Скорость извлечения 5.0 X
Качество трека 100.0 %
CRC теста A0895705
CRC копии A0895705
Точное извлечение (достоверность 3) [557DA6AF] (AR v2)
Копирование… OK

Трек 6

Имя файла R:\Раздача 47\A Flock Of Seagulls - 1986 - The Best Of\06 Wishing (If I had a photograph of you).wav

Длина предзазора 0:00:01.45

Пиковый уровень 90.2 %
Скорость извлечения 5.4 X
Качество трека 100.0 %
CRC теста 3F067844
CRC копии 3F067844
Точное извлечение (достоверность 3) [EB25E3AC] (AR v2)
Копирование… OK

Трек 7

Имя файла R:\Раздача 47\A Flock Of Seagulls - 1986 - The Best Of\07 (It's not me) Talking.wav

Пиковый уровень 89.4 %
Скорость извлечения 3.9 X
Качество трека 99.9 %
CRC теста 534480E6
CRC копии 534480E6
Точное извлечение (достоверность 3) [D1F445C3] (AR v2)
Копирование… OK

Трек 8

Имя файла R:\Раздача 47\A Flock Of Seagulls - 1986 - The Best Of\08 Transfer affection.wav

Пиковый уровень 80.9 %
Скорость извлечения 6.0 X
Качество трека 100.0 %
CRC теста 17BEB73E
CRC копии 17BEB73E
Точное извлечение (достоверность 3) [BB2102C5] (AR v2)
Копирование… OK

Трек 9

Имя файла R:\Раздача 47\A Flock Of Seagulls - 1986 - The Best Of\09 Who's that girl (she's got it).wav

Пиковый уровень 89.2 %
Скорость извлечения 6.2 X
Качество трека 100.0 %
CRC теста D0A13766
CRC копии D0A13766
Точное извлечение (достоверность 3) [11345B91] (AR v2)
Копирование… OK

Трек 10

Имя файла R:\Раздача 47\A Flock Of Seagulls - 1986 - The Best Of\10 D.N.A..wav

Пиковый уровень 94.6 %
Скорость извлечения 3.6 X
Качество трека 99.9 %
CRC теста 80E0B1A9
CRC копии 80E0B1A9
Точное извлечение (достоверность 3) [E387419F] (AR v2)
Копирование… OK

Трек 11

Имя файла R:\Раздача 47\A Flock Of Seagulls - 1986 - The Best Of\11 Wishing (If I had a photograph of you) (Extended Version).wav

Пиковый уровень 94.7 %
Скорость извлечения 5.1 X
Качество трека 99.9 %
CRC теста 3F4A581B
CRC копии 3F4A581B
Точное извлечение (достоверность 3) [BAE9F983] (AR v2)
Копирование… OK

Трек 12

Имя файла R:\Раздача 47\A Flock Of Seagulls - 1986 - The Best Of\12 The more you live, the more you love (Extended Version).wav

Пиковый уровень 75.8 %
Скорость извлечения 5.1 X
Качество трека 99.9 %
CRC теста C2566D03
CRC копии C2566D03
Точное извлечение (достоверность 3) [76BE1BEE] (AR v2)
Копирование… OK


Все треки извлечены точно

Ошибок не произошло

Конец отчёта

==== Контрольная сумма отчёта 05DA4D8A61715C710EE44A3032D17C70C60791EFC8452DDF35D39DCB4CC5D912 ====

[CUETools log; Date: 25.05.2017 23:08:56; Version: 2.1.4]
Pregap length 00:00:32.
[CTDB TOCID: YgGk10pkWUVJyzYOrRijJygWmMI-] found.
Track | CTDB Status
1 | (69/85) Accurately ripped
2 | (69/85) Accurately ripped
3 | (69/85) Accurately ripped
4 | (69/85) Accurately ripped
5 | (69/85) Accurately ripped
6 | (69/85) Accurately ripped
7 | (69/85) Accurately ripped
8 | (69/85) Accurately ripped
9 | (69/85) Accurately ripped
10 | (69/85) Accurately ripped
11 | (68/85) Accurately ripped
12 | (69/85) Accurately ripped
[AccurateRip ID: 0017ef76-00e2cd08-9f0dc20c] found.
Track [ CRC | V2 ] Status
01 [c72ec9b1|a8d547a1] (019+005/105) Accurately ripped
02 [a46e710f|db15e20e] (018+005/102) Accurately ripped
03 [d0044e0d|a6e3e69a] (018+005/102) Accurately ripped
04 [52f1fe65|d2668b5a] (018+005/102) Accurately ripped
05 [371df60b|557da6af] (018+005/101) Accurately ripped
06 [3ff4735b|eb25e3ac] (018+005/102) Accurately ripped
07 [719de8f2|d1f445c3] (018+005/102) Accurately ripped
08 [2c229f26|bb2102c5] (018+005/101) Accurately ripped
09 [8de00635|11345b91] (019+005/103) Accurately ripped
10 [42b34440|e387419f] (018+005/102) Accurately ripped
11 [897feee4|bae9f983] (017+005/100) Accurately ripped
12 [b51879f3|76be1bee] (018+005/102) Accurately ripped
Offsetted by -29:
01 [d04e9e41] (008/105) Accurately ripped
02 [027e710c] (008/102) Accurately ripped
03 [79bb175b] (008/102) Accurately ripped
04 [f2686f47] (008/102) Accurately ripped
05 [19f18b21] (008/101) Accurately ripped
06 [3d83f9cb] (008/102) Accurately ripped
07 [6b7ef31a] (008/102) Accurately ripped
08 [9eab0dfd] (008/101) Accurately ripped
09 [89503234] (008/103) Accurately ripped
10 [5bc20c97] (008/102) Accurately ripped
11 [33bdb90e] (008/100) Accurately ripped
12 [24ee44db] (008/102) Accurately ripped
Offsetted by 667:
01 [f552b0c1] (002/105) Accurately ripped
02 [a8288985] (002/102) Accurately ripped
03 [75870f8e] (002/102) Accurately ripped
04 [6d5ad228] (002/102) Accurately ripped
05 [ce22c4bc] (002/101) Accurately ripped
06 [bcb916a1] (002/102) Accurately ripped
07 [409b1e46] (002/102) Accurately ripped
08 [640000d9] (002/101) Accurately ripped
09 [8f4d0399] (002/103) Accurately ripped
10 [e04536b2] (002/102) Accurately ripped
11 [d6cc7b5a] (002/100) Accurately ripped
12 [c10eefd1] (002/102) Accurately ripped
Offsetted by 1326:
01 [f9d7a651] (012/105) Accurately ripped
02 [dbe5d386] (012/102) Accurately ripped
03 [d2e7b921] (012/102) Accurately ripped
04 [219be977] (012/102) Accurately ripped
05 [8a86b174] (012/101) Accurately ripped
06 [1fdb2d1c] (012/102) Accurately ripped
07 [637e7ab6] (012/102) Accurately ripped
08 [e770c322] (012/101) Accurately ripped
09 [cd28e032] (012/103) Accurately ripped
10 [dcc8596c] (012/102) Accurately ripped
11 [794cba09] (012/100) Accurately ripped
12 [beada802] (012/102) Accurately ripped
Offsetted by -12:
01 [08c05f71] (000/105) No match (V2 was not tested)
02 [cfa07ca1] (000/102) No match (V2 was not tested)
03 [7d729cca] (000/102) No match (V2 was not tested)
04 [782d3ad5] (000/102) No match (V2 was not tested)
05 [223c3368] (000/101) No match (V2 was not tested)
06 [9f8fff42] (000/102) No match (V2 was not tested)
07 [87268412] (000/102) No match (V2 was not tested)
08 [ce69d622] (000/101) No match (V2 was not tested)
09 [c3639ea0] (000/103) No match (V2 was not tested)
10 [04c3bd45] (000/102) No match (V2 was not tested)
11 [047eacd0] (000/100) No match (V2 was not tested)
12 [456c8ba0] (000/102) No match (V2 was not tested)
Offsetted by 638:
01 [fe728551] (000/105) No match (V2 was not tested)
02 [a7b62e22] (000/102) No match (V2 was not tested)
03 [228d636f] (000/102) No match (V2 was not tested)
04 [bfe494d4] (000/102) No match (V2 was not tested)
05 [e47f74b5] (000/101) No match (V2 was not tested)
06 [ab9fcec6] (000/102) No match (V2 was not tested)
07 [b76756c3] (000/102) No match (V2 was not tested)
08 [9c4eb963] (000/101) No match (V2 was not tested)
09 [f771e8f0] (000/103) No match (V2 was not tested)
10 [eda256a4] (000/102) No match (V2 was not tested)
11 [3df9d699] (000/100) No match (V2 was not tested)
12 [9d7151bc] (000/102) No match (V2 was not tested)

Track Peak [ CRC32 ] [W/O NULL] [ LOG ]
– 98,6 [8FE1992C] [98167634]
01 98,6 [41BFE8DD] [7660A30C] CRC32
02 94,6 [8CC6B5B0] [FFE5D882] CRC32
03 82,9 [96AE2DC0] [E1566987] CRC32
04 97,1 [B664A483] [BDEF0F3E] CRC32
05 78,8 [A0895705] [B941997A] CRC32
06 90,2 [3F067844] [5A49AF47] CRC32
07 89,4 [534480E6] [2644D054] CRC32
08 80,9 [17BEB73E] [8CC1DC60] CRC32
09 89,2 [D0A13766] [C2209451] CRC32
10 94,6 [80E0B1A9] [7EED3D13] CRC32
11 94,7 [3F4A581B] [83E053BC] CRC32
12 75,8 [C2566D03] [FBFCE123] CRC32

foobar2000 1.2 / Dynamic Range Meter 1.1.1
log date: 2017-05-25 23:03:00

––––––––––––––––––––––––––––––––––––––––
Analyzed: A Flock Of Seagulls / The Best Of A Flock Of Seagulls
––––––––––––––––––––––––––––––––––––––––

DR Peak RMS Duration Track
––––––––––––––––––––––––––––––––––––––––
DR12 -0.12 dB -15.05 dB 5:08 01-I ran
DR13 -0.48 dB -15.75 dB 3:49 02-Space age love song
DR12 -1.62 dB -16.54 dB 2:31 03-Telecommunication
DR14 -0.25 dB -15.62 dB 4:07 04-The more you live, the more you love
DR12 -2.06 dB -16.86 dB 4:39 05-Nightmares
DR11 -0.89 dB -14.09 dB 5:30 06-Wishing (If I had a photograph of you)
DR12 -0.97 dB -14.92 dB 5:00 07-(It's not me) Talking
DR12 -1.83 dB -17.43 dB 5:22 08-Transfer affection
DR12 -0.99 dB -15.38 dB 4:16 09-Who's that girl (she's got it)
DR13 -0.48 dB -14.84 dB 2:29 10-D.N.A.
DR12 -0.47 dB -14.70 dB 9:36 11-Wishing (If I had a photograph of you) (Extended Version)
DR11 -2.40 dB -15.27 dB 6:13 12-The more you live, the more you love (Extended Version)
––––––––––––––––––––––––––––––––––––––––

Number of tracks: 12
Official DR value: DR12

Samplerate: 44100 Hz
Channels: 2
Bits per sample: 16
Bitrate: 896 kbps
Codec: FLAC
================================================================================

A Flock Of Seagulls - The Best Of A Flock Of Seagulls (1986)

A Flock Of Seagulls - The Best Of A Flock Of Seagulls (1986)

All thanks to original releaser - clusert

More interesting music in My Blog