A Forest Mighty Black - Mellowdramatic (1997) [Re-Up]

Posted By: Designol
A Forest Mighty Black - Mellowdramatic (1997) [Re-Up]

A Forest Mighty Black - Mellowdramatic (1997)
EAC | FLAC | Image (Cue&Log) ~ 311 Mb | Mp3 (CBR320) ~ 139 Mb | Scans included
Trip Hop, Downtempo, Ambient, Acid Jazz | Label: Compost | # 038-2 | 00:53:02

Nominally based around a series of hard bop and film-music samples amplified with crunchy beats, Mellowdramatic is an exceptional record of downtempo grooves and late-night Rhodes keyboards. Producer Bernd Kunz has an excellent sense of atmosphere concerning what a laid-back trip-hop album should be, illustrated by tracks like "Minigame", "Everything" and "Duo Trippin'".

Review by Keith Farley, Allmusic.com

A Forest Mighty Black is one of the few outposts for jazzy downtempo in Germany. Fronted by producer Bernd Kunz, the outfit debuted with "Candyfloss" and "Fresh in My Mind," two of the first three singles appearing on Munich's respected Compost label (also the home of recordings by Fauna Flash, Funkstörung, Beanfield and Turntable Terranova). A Forest Mighty Black gained praise for their refreshing blend of Brazilian and fusion influences with trip-hop, and appeared on several compilations from the Acid Jazz label. First album Mellowdramatic was released in 1997, followed one year later by Mellowdramatic Remixed. A Forest Mighty Black have also provided remixes of their own for United Future Organization, another electronic act notably influenced by the music of Brazil.

Biography by John Bush, Allmusic.com

Tracklist:

01. Minigame (03:56)
02. Duel With A So(u)l (05:11)
03. Everything (07:58)
04. Tides (05:09)
05. Duo Trippin' (05:52)
06. Reflections Of A Fake Night (06:50)
07. The 9 To 5 (Is Killing Me) (01:20)
08. Fresh In My Mind (05:58)
09. Rebirth (07:19)
10. Till The End (03:24)


Exact Audio Copy V0.99 prebeta 4 from 23. January 2008

Отчёт EAC об извлечении, выполненном 2. ноября 2008, 17:41

A Forest Mighty Black / Mellowdramatic

Дисковод: PIONEER DVD-RW DVR-215D Adapter: 2 ID: 1

Режим чтения : Достоверность
Использование точного потока : Да
Отключение кэша аудио : Да
Использование указателей C2 : Нет

Коррекция смещения при чтении : 48
Способность читать области Lead-in и Lead-out : Нет
Заполнение пропущенных сэмплов тишиной : Да
Удаление блоков с тишиной в начале и конце : Нет
При вычислениях CRC использовались нулевые сэмплы : Да
Интерфейс : Установленный внешний ASPI-интерфейс

Выходной формат : Внутренние WAV-операции
Формат сэмплов : 44.100 Гц; 16 бит; стерео


TOC извлечённого CD

Трек | Старт | Длительность | Начальный сектор | Конечный сектор
––––––––––––––––––––––––––––––––––-
1 | 0:00.00 | 3:56.73 | 0 | 17772
2 | 3:56.73 | 5:11.25 | 17773 | 41122
3 | 9:08.23 | 7:58.27 | 41123 | 76999
4 | 17:06.50 | 5:09.08 | 77000 | 100182
5 | 22:15.58 | 5:52.60 | 100183 | 126642
6 | 28:08.43 | 6:50.42 | 126643 | 157434
7 | 34:59.10 | 1:20.60 | 157435 | 163494
8 | 36:19.70 | 5:58.55 | 163495 | 190399
9 | 42:18.50 | 7:19.13 | 190400 | 223337
10 | 49:37.63 | 3:24.27 | 223338 | 238664


Характеристики диапазона извлечения и сообщения об ошибках

Выбранный диапазон

Имя файла E:\torrent\A Forest Mighty Black\A Forest Mighty Black - Mellowdramatic.wav

Пиковый уровень 100.0 %
Качество диапазона 100.0 %
CRC теста 9BD523D1
CRC копии 9BD523D1
Копирование… OK

Ошибок не произошло


AccurateRip: сводка

Трек 1 нет в базе данных
Трек 2 нет в базе данных
Трек 3 нет в базе данных
Трек 4 нет в базе данных
Трек 5 нет в базе данных
Трек 6 нет в базе данных
Трек 7 нет в базе данных
Трек 8 нет в базе данных
Трек 9 нет в базе данных
Трек 10 нет в базе данных

Ни одного трека нет в базе AccurateRip

Конец отчёта

foobar2000 1.2.1 / Dynamic Range Meter 1.1.1
log date: 2013-02-17 17:21:14

––––––––––––––––––––––––––––––––––––––––
Analyzed: A Forest Mighty Black / Mellowdramatic
––––––––––––––––––––––––––––––––––––––––

DR Peak RMS Duration Track
––––––––––––––––––––––––––––––––––––––––
DR7 0.00 dB -9.74 dB 3:57 01-Minigame
DR7 0.00 dB -10.46 dB 5:11 02-Duel With A So(u)l
DR8 0.00 dB -10.44 dB 7:58 03-Everything
DR7 0.00 dB -8.77 dB 5:09 04-Tides
DR9 0.00 dB -11.51 dB 5:53 05-Duo Trippin'
DR9 0.00 dB -11.62 dB 6:51 06-Reflections Of A Fake Night
DR7 -3.50 dB -13.90 dB 1:21 07-The 9 To 5 (Is Killing Me)
DR8 0.00 dB -9.96 dB 5:59 08-Fresh In My Mind
DR10 0.00 dB -12.33 dB 7:19 09-Rebirth
DR7 0.00 dB -9.01 dB 3:24 10-Till The End
––––––––––––––––––––––––––––––––––––––––

Number of tracks: 10
Official DR value: DR8

Samplerate: 44100 Hz
Channels: 2
Bits per sample: 16
Bitrate: 774 kbps
Codec: FLAC
================================================================================

A Forest Mighty Black - Mellowdramatic (1997) [Re-Up]

A Forest Mighty Black - Mellowdramatic (1997) [Re-Up]

All thanks to original releaser - boccador

More interesting music in My Blog