Subcategories

A-Ha - MTV Unplugged: Summer Solstice [Live album]

Posted By: Aregak
A-Ha - MTV Unplugged: Summer Solstice [Live album]

A-Ha - MTV Unplugged: Summer Solstice [Live album] (2017)
EAC Rip | FLAC, TRACKS+CUE, LOG, Covers | 01:16:20 | 691.9 MB
Pop, Rock | Polydor / 00602557929508

A-ha, the multi-platinum selling legendary Norwegian trio, will release a 15 track Acoustic Hits MTV Unplugged album on October 6. This is the first time in the band’s 30 year history that they have recorded an acoustic album. The set list includes a carefully picked selection of trademark hits, tracks not often performed live and two brand new songs, This Is Our Home and A Break In The Clouds. Guests on the album include Alison Moyet, Ian McCulloch, and Lissie. Their Unplugged concert was filmed in Norway, each artist in the series chose a location that held a special meaning to them. a-ha’s MTV Unplugged album will enhance the bands credibility, they are one of a select few artists that have been chosen to appear in the series alongside acts such as Shawn Mendes.
Track Listings:
CD1
01. This Is Our Home (05:05)
02. Lifelines (05:18)
03. I've Been Losing You (05:05)
04. Analogue (All I Want) (04:44)
05. The Sun Always Shines on TV (04:28)
06. A Break in the Clouds (04:54)
07. Foot of the Mountain (05:27)
08. Stay on These Roads (06:18)
09. This Alone Is Love (06:07)
10. Over the Treetops (06:44)
11. Forever Not Yours (04:07)

CD2
01. Sox of the Fox (07:18)
02. Scoundrel Days (04:56)
03. The Killing Moon (05:55)
04. Summer Moved On (05:30)
05. Memorial Beach (04:32)
06. Living a Boy's Adventure Tale (05:36)
07. Manhattan Skyline (05:47)
08. The Living Daylights (05:50)
09. Hunting High and Low (05:57)
10. Take on Me (04:14)


Exact Audio Copy V1.3 from 2. September 2016

EAC extraction logfile from 7. October 2017, 13:37

a-ha / MTV Unplugged - Summer Solstice

Used drive : PLEXTOR CD-R PX-230A Adapter: 1 ID: 0

Read mode : Secure
Utilize accurate stream : Yes
Defeat audio cache : Yes
Make use of C2 pointers : No

Read offset correction : 738
Overread into Lead-In and Lead-Out : No
Fill up missing offset samples with silence : Yes
Delete leading and trailing silent blocks : No
Null samples used in CRC calculations : Yes
Used interface : Native Win32 interface for Win NT & 2000
Gap handling : Appended to previous track

Used output format : User Defined Encoder
Selected bitrate : 1024 kBit/s
Quality : High
Add ID3 tag : No
Command line compressor : C:\Program Files\Exact Audio Copy\Flac\flac.exe
Additional command line options : -6 -V -T "ARTIST=%artist%" -T "TITLE=%title%" -T "ALBUM=%albumtitle%" -T "DATE=%year%" -T "TRACKNUMBER=%tracknr%" -T "GENRE=%genre%" -T "COMMENT=%comment%" -T "ALBUMARTIST=%albuminterpret%" -T "COMPOSER=%composer%" -T "DISCNUMBER=%cdnumber%" -T "TOTALDISCS=%totalcds%" -T "TOTALTRACKS=%numtracks%" %source% -o %dest%


TOC of the extracted CD

Track | Start | Length | Start sector | End sector
––––––––––––––––––––––––––––-
1 | 0:00.00 | 5:05.00 | 0 | 22874
2 | 5:05.00 | 5:18.05 | 22875 | 46729
3 | 10:23.05 | 5:04.59 | 46730 | 69588
4 | 15:27.64 | 4:43.42 | 69589 | 90855
5 | 20:11.31 | 4:27.63 | 90856 | 110943
6 | 24:39.19 | 4:54.28 | 110944 | 133021
7 | 29:33.47 | 5:27.01 | 133022 | 157547
8 | 35:00.48 | 6:17.42 | 157548 | 185864
9 | 41:18.15 | 6:07.10 | 185865 | 213399
10 | 47:25.25 | 6:43.40 | 213400 | 243664
11 | 54:08.65 | 4:06.69 | 243665 | 262183


Track 1

Filename C:\Ripped by Filex\01 - a-ha - This Is Our Home.wav

Pre-gap length 0:00:02.00

Peak level 99.4 %
Extraction speed 5.2 X
Track quality 100.0 %
Test CRC 5D596B2A
Copy CRC 5D596B2A
Track not present in AccurateRip database
Copy OK

Track 2

Filename C:\Ripped by Filex\02 - a-ha - Lifelines.wav

Peak level 99.6 %
Extraction speed 5.4 X
Track quality 99.9 %
Test CRC D2DE4A08
Copy CRC D2DE4A08
Track not present in AccurateRip database
Copy OK

Track 3

Filename C:\Ripped by Filex\03 - a-ha feat. Lissie - I've Been Losing You.wav

Peak level 99.6 %
Extraction speed 5.8 X
Track quality 99.9 %
Test CRC D41DD307
Copy CRC D41DD307
Track not present in AccurateRip database
Copy OK

Track 4

Filename C:\Ripped by Filex\04 - a-ha - Analogue (All I Want).wav

Peak level 99.6 %
Extraction speed 6.7 X
Track quality 100.0 %
Test CRC 44F8A003
Copy CRC 44F8A003
Track not present in AccurateRip database
Copy OK

Track 5

Filename C:\Ripped by Filex\05 - a-ha feat. Helene Havik - The Sun Always Shines on TV.wav

Peak level 99.6 %
Extraction speed 7.0 X
Track quality 100.0 %
Test CRC 3DF6DC59
Copy CRC 3DF6DC59
Track not present in AccurateRip database
Copy OK

Track 6

Filename C:\Ripped by Filex\06 - a-ha - A Break in the Clouds.wav

Peak level 99.2 %
Extraction speed 7.5 X
Track quality 100.0 %
Test CRC 8295B19D
Copy CRC 8295B19D
Track not present in AccurateRip database
Copy OK

Track 7

Filename C:\Ripped by Filex\07 - a-ha - Foot of the Mountain.wav

Peak level 99.6 %
Extraction speed 7.3 X
Track quality 99.9 %
Test CRC 566AEB33
Copy CRC 566AEB33
Track not present in AccurateRip database
Copy OK

Track 8

Filename C:\Ripped by Filex\08 - a-ha - Stay on These Roads.wav

Peak level 98.9 %
Extraction speed 8.2 X
Track quality 100.0 %
Test CRC 1D5E25E1
Copy CRC 1D5E25E1
Track not present in AccurateRip database
Copy OK

Track 9

Filename C:\Ripped by Filex\09 - a-ha - This Alone Is Love.wav

Peak level 99.6 %
Extraction speed 8.7 X
Track quality 100.0 %
Test CRC ACF8211A
Copy CRC ACF8211A
Track not present in AccurateRip database
Copy OK

Track 10

Filename C:\Ripped by Filex\10 - a-ha - Over the Treetops.wav

Peak level 99.6 %
Extraction speed 6.5 X
Track quality 100.0 %
Test CRC FD70FDE9
Copy CRC FD70FDE9
Track not present in AccurateRip database
Copy OK

Track 11

Filename C:\Ripped by Filex\11 - a-ha - Forever Not Yours.wav

Peak level 98.9 %
Extraction speed 8.5 X
Track quality 100.0 %
Test CRC D1965397
Copy CRC D1965397
Track not present in AccurateRip database
Copy OK


None of the tracks are present in the AccurateRip database

No errors occurred

End of status report

–– CUETools DB Plugin V2.1.6

[CTDB TOCID: 7UMNCk2T210.fQILmTVgxuHNS00-] found
Submit result: 7UMNCk2T210.fQILmTVgxuHNS00- has been confirmed
Track | CTDB Status
1 | (3/3) Accurately ripped
2 | (3/3) Accurately ripped
3 | (3/3) Accurately ripped
4 | (3/3) Accurately ripped
5 | (3/3) Accurately ripped
6 | (3/3) Accurately ripped
7 | (3/3) Accurately ripped
8 | (3/3) Accurately ripped
9 | (3/3) Accurately ripped
10 | (3/3) Accurately ripped
11 | (3/3) Accurately ripped


==== Log checksum 6EE9D9B0FC5E874A060157BD8449FFACC15A2F45820EF7808FB78FE7E0DE8466 ====


Exact Audio Copy V1.3 from 2. September 2016

EAC extraction logfile from 7. October 2017, 14:13

a-ha / MTV Unplugged - Summer Solstice

Used drive : PLEXTOR CD-R PX-230A Adapter: 1 ID: 0

Read mode : Secure
Utilize accurate stream : Yes
Defeat audio cache : Yes
Make use of C2 pointers : No

Read offset correction : 738
Overread into Lead-In and Lead-Out : No
Fill up missing offset samples with silence : Yes
Delete leading and trailing silent blocks : No
Null samples used in CRC calculations : Yes
Used interface : Native Win32 interface for Win NT & 2000
Gap handling : Appended to previous track

Used output format : User Defined Encoder
Selected bitrate : 1024 kBit/s
Quality : High
Add ID3 tag : No
Command line compressor : C:\Program Files\Exact Audio Copy\Flac\flac.exe
Additional command line options : -6 -V -T "ARTIST=%artist%" -T "TITLE=%title%" -T "ALBUM=%albumtitle%" -T "DATE=%year%" -T "TRACKNUMBER=%tracknr%" -T "GENRE=%genre%" -T "COMMENT=%comment%" -T "ALBUMARTIST=%albuminterpret%" -T "COMPOSER=%composer%" -T "DISCNUMBER=%cdnumber%" -T "TOTALDISCS=%totalcds%" -T "TOTALTRACKS=%numtracks%" %source% -o %dest%


TOC of the extracted CD

Track | Start | Length | Start sector | End sector
––––––––––––––––––––––––––––-
1 | 0:00.00 | 7:17.74 | 0 | 32848
2 | 7:17.74 | 4:56.28 | 32849 | 55076
3 | 12:14.27 | 5:54.67 | 55077 | 81693
4 | 18:09.19 | 5:29.38 | 81694 | 106406
5 | 23:38.57 | 4:31.69 | 106407 | 126800
6 | 28:10.51 | 5:35.53 | 126801 | 151978
7 | 33:46.29 | 5:47.34 | 151979 | 178037
8 | 39:33.63 | 5:49.38 | 178038 | 204250
9 | 45:23.26 | 5:56.55 | 204251 | 231005
10 | 51:20.06 | 4:13.68 | 231006 | 250048


Track 1

Filename C:\Ripped by Filex\01 - a-ha - Sox of the Fox.wav

Pre-gap length 0:00:02.00

Peak level 99.6 %
Extraction speed 3.1 X
Track quality 100.0 %
Test CRC 96A4AFCB
Copy CRC 96A4AFCB
Track not present in AccurateRip database
Copy OK

Track 2

Filename C:\Ripped by Filex\02 - a-ha (feat. Ian McCulloch) - Scoundrel Days.wav

Peak level 99.4 %
Extraction speed 3.1 X
Track quality 100.0 %
Test CRC D0D90CC1
Copy CRC D0D90CC1
Track not present in AccurateRip database
Copy OK

Track 3

Filename C:\Ripped by Filex\03 - a-ha (feat. Ian McCulloch) - The Killing Moon.wav

Peak level 99.6 %
Extraction speed 2.5 X
Track quality 99.9 %
Test CRC 6FF7E98D
Copy CRC 6FF7E98D
Track not present in AccurateRip database
Copy OK

Track 4

Filename C:\Ripped by Filex\04 - a-ha (feat. Alison Moyet) - Summer Moved On.wav

Peak level 99.6 %
Extraction speed 3.2 X
Track quality 100.0 %
Test CRC E52DE828
Copy CRC E52DE828
Track not present in AccurateRip database
Copy OK

Track 5

Filename C:\Ripped by Filex\05 - a-ha - Memorial Beach.wav

Peak level 99.2 %
Extraction speed 3.1 X
Track quality 99.9 %
Test CRC 65FFF4AC
Copy CRC 65FFF4AC
Track not present in AccurateRip database
Copy OK

Track 6

Filename C:\Ripped by Filex\06 - a-ha - Living a Boy's Adventure Tale.wav

Peak level 98.9 %
Extraction speed 3.2 X
Track quality 100.0 %
Test CRC 7C601855
Copy CRC 7C601855
Track not present in AccurateRip database
Copy OK

Track 7

Filename C:\Ripped by Filex\07 - a-ha - Manhattan Skyline.wav

Peak level 99.2 %
Extraction speed 3.2 X
Track quality 100.0 %
Test CRC F302D64F
Copy CRC F302D64F
Track not present in AccurateRip database
Copy OK

Track 8

Filename C:\Ripped by Filex\08 - a-ha - The Living Daylights.wav

Peak level 99.6 %
Extraction speed 3.2 X
Track quality 100.0 %
Test CRC 9F37030F
Copy CRC 9F37030F
Track not present in AccurateRip database
Copy OK

Track 9

Filename C:\Ripped by Filex\09 - a-ha - Hunting High and Low.wav

Peak level 99.2 %
Extraction speed 3.2 X
Track quality 100.0 %
Test CRC 466DD7DE
Copy CRC 466DD7DE
Track not present in AccurateRip database
Copy OK

Track 10

Filename C:\Ripped by Filex\10 - a-ha - Take on Me.wav

Peak level 98.7 %
Extraction speed 3.1 X
Track quality 100.0 %
Test CRC DA6124B5
Copy CRC DA6124B5
Track not present in AccurateRip database
Copy OK


None of the tracks are present in the AccurateRip database

No errors occurred

End of status report

–– CUETools DB Plugin V2.1.6

[CTDB TOCID: G4_P9BG0gppqE3nTyeCeyzE0oNs-] found
Submit result: G4_P9BG0gppqE3nTyeCeyzE0oNs- has been confirmed
Track | CTDB Status
1 | (3/3) Accurately ripped
2 | (3/3) Accurately ripped
3 | (3/3) Accurately ripped
4 | (3/3) Accurately ripped
5 | (3/3) Accurately ripped
6 | (3/3) Accurately ripped
7 | (3/3) Accurately ripped
8 | (3/3) Accurately ripped
9 | (3/3) Accurately ripped
10 | (3/3) Accurately ripped


==== Log checksum 4F9963F6CDD871AC901EEFF151A02480D902B9543F8B450E8DF0BD3BC5B40154 ====