Subcategories

A-Teens - The Definitive Collection (2001)

Posted By: v3122
A-Teens - The Definitive Collection (2001)

A-Teens - The Definitive Collection (2001)
3CD | Pop/Disco/Eurodance | EAC Rip | Flac (Image) + Cue + Log | MP3 CBR 320Kbps
Covers(600dpi) Included | Stockholm Records | 601215736922 | ~1244 + 366 Mb | FSonic, FServe, Uploaded

Contains: The ABBA Generation (1999), Teen Spirit (2001) and Golden Single's (2001)…

A-Teens - The Definitive Collection (2001)

A-TEENS:

Formed: 1998
Genres: Rock
Representative Albums: "The ABBA Generation", "Teen Spirit", "Greatest Hits"
Representative Songs: "Mamma Mia", "Super Trouper", "Dancing Queen"

Über-ABBA tribute the A-Teens assembled Stockholm, Sweden-based adolescents Marie Serneholt, Sara Lumholdt, Dhani Lennevald, and Amit Paul. Beginning work on their debut album The ABBA Generation in 1998, two years later the group topped the European charts with their cover of "Mamma Mia," achieving the feat exactly a quarter of a century after the original ABBA hit number one with their own rendition of the song. The aforementioned LP contains similarly modernized renditions of ABBA classics like "Dancing Queen," "Mamma Mia," "S.O.S.," and "Take a Chance on Me." After tours with like-minded acts such as *N Sync and Britney Spears and an appearance on Nickolodeon's All That tour in summer 2000, the group delivered their follow-up album, Teen Spirit, which featured original material. In spring 2002, they covered the Elvis Presley classic "Can't Help Falling in Love," later performing the single on Nickelodeon's popular Slime Time Live in late May. The song was also included on the A-Teens' third album, Pop 'Til You Drop, which appeared on Universal in June.

~ Jason Ankeny, Rovi

A-Teens - The Definitive Collection (2001):

A-Teens - The Definitive Collection (2001)

CD1: The ABBA Generation (1999)

01. Mamma Mia [0:03:44.57]
02. Gimme! Gimme! Gimme! (A Man After Midnight) [0:03:56.35]
03. Super Trouper [0:03:52.20]
04. One Of Us [0:03:55.35]
05. Voulez-Vous [0:03:41.30]
06. S.O.S [0:03:11.33]
07. Dancing Queen [0:03:52.60]
08. Take A Chance On Me [0:03:51.65]
09. Lay All Your Love On Me [0:04:03.35]
10. The Name Of The Game [0:04:20.07]
11. Our Last Summer [0:04:28.10]

Exact Audio Copy V0.99 prebeta 5 from 4. May 2009

EAC extraction logfile from 21. July 2010, 18:32

A-TEENS / The ABBA Generation

Used drive : Optiarc DVD RW AD-7203S Adapter: 3 ID: 1

Read mode : Secure
Utilize accurate stream : Yes
Defeat audio cache : Yes
Make use of C2 pointers : No

Read offset correction : 48
Overread into Lead-In and Lead-Out : No
Fill up missing offset samples with silence : Yes
Delete leading and trailing silent blocks : No
Null samples used in CRC calculations : Yes
Used interface : Installed external ASPI interface

Used output format : User Defined Encoder
Selected bitrate : 1024 kBit/s
Quality : High
Add ID3 tag : No
Command line compressor : C:\Program Files\Exact Audio Copy\Flac\flac.exe
Additional command line options : -0 -V -T "ARTIST=%a" -T "ALBUM=%g" -T "DATE=%y" -T "GENRE=%m" -T "COMMENT=released by KoGGaN" -T "URL=http://flacmusic.ru/user/DaRReL/news/" %s


TOC of the extracted CD

Track | Start | Length | Start sector | End sector
––––––––––––––––––––––––––––-
1 | 0:00.00 | 3:44.57 | 0 | 16856
2 | 3:44.57 | 3:56.35 | 16857 | 34591
3 | 7:41.17 | 3:52.20 | 34592 | 52011
4 | 11:33.37 | 3:55.35 | 52012 | 69671
5 | 15:28.72 | 3:41.30 | 69672 | 86276
6 | 19:10.27 | 3:11.33 | 86277 | 100634
7 | 22:21.60 | 3:52.60 | 100635 | 118094
8 | 26:14.45 | 3:51.65 | 118095 | 135484
9 | 30:06.35 | 4:03.35 | 135485 | 153744
10 | 34:09.70 | 4:20.07 | 153745 | 173251
11 | 38:30.02 | 4:28.10 | 173252 | 193361


Range status and errors

Selected range

Filename E:\Audio in lossless\$ Pop & Disco $\A-TEENS © 2001 - The Definitive Collection (3CD)\A-TEENS - The ABBA Generation.wav

Peak level 100.0 %
Range quality 100.0 %
Copy CRC 2E1476FE
Copy OK

No errors occurred

End of status report

AUDIOCHECKER v2.0 beta (build 457) - by Dester - opdester@freemail.hu
~~~~~~~~~~~~~~~~~~~~~~~~~~~~~~~~~~
-=== DO NOT EDIT THIS FILE! ===-

Path: …\A-TEENS © 2001 - The Definitive Collection (3CD)

1 -=- A-TEENS - Golden Single's.flac -=- CDDA (100%)
2 -=- A-TEENS - Teen Spirit.flac -=- CDDA (100%)
3 -=- A-TEENS - The ABBA Generation.flac -=- CDDA (100%)

Summary 100,00% CDDA

142130580

[Verification date: 27.11.2010 13:36:36]
[Disc ID: 00114da0-009633f1-810a120b]
Disk not present in database.

Track [ CRC32 ] [W/O NULL] [ LOG ]
– [2E1476FE] [44D47B63] CRC32
01 [2B5AEDDC] [EF9AFD2C]
02 [4AB47CAE] [FD61A65A]
03 [64DD1B1E] [D0BCAA8A]
04 [97109042] [71B50287]
05 [87B9F532] [4531227A]
06 [B4FA4CC9] [24E251F2]
07 [0CE10545] [6F799097]
08 [148609A2] [C56E4D51]
09 [8AEB1569] [E478FD83]
10 [548552F8] [CA6E4051]
11 [47EDD008] [2BB897B6]

A-Teens - The Definitive Collection (2001)

CD2: Teen Spirit (2001)

01. Bouncing Off The Ceiling (Upside Down) [0:03:16.55]
02. …To The Music [0:03:22.54]
03. Halfway Around The World [0:03:40.49]
04. Firefly [0:03:06.30]
05. Sugar Rush [0:03:03.59]
06. Rockin' [0:03:27.52]
07. Around The Corner Of Your Eye [0:04:12.14]
08. Slammin' Kinda Love [0:03:03.64]
09. All My Love [0:03:16.47]
10. For All That I Am [0:03:16.73]
11. That's What (It's All About) [0:03:18.03]
12. Morning Light [0:03:10.62]
13. Back For More [0:03:10.33]
14. Don't Even Know Your Name (bonus track) [0:03:46.32]

Exact Audio Copy V0.99 prebeta 5 from 4. May 2009

EAC extraction logfile from 22. July 2010, 11:32

A-TEENS / Teen Spirit

Used drive : Optiarc DVD RW AD-7203S Adapter: 3 ID: 1

Read mode : Secure
Utilize accurate stream : Yes
Defeat audio cache : Yes
Make use of C2 pointers : No

Read offset correction : 48
Overread into Lead-In and Lead-Out : No
Fill up missing offset samples with silence : Yes
Delete leading and trailing silent blocks : No
Null samples used in CRC calculations : Yes
Used interface : Installed external ASPI interface

Used output format : User Defined Encoder
Selected bitrate : 1024 kBit/s
Quality : High
Add ID3 tag : No
Command line compressor : C:\Program Files\Exact Audio Copy\Flac\flac.exe
Additional command line options : -0 -V -T "ARTIST=%a" -T "ALBUM=%g" -T "DATE=%y" -T "GENRE=%m" -T "COMMENT=released by KoGGaN" -T "URL=http://flacmusic.ru/user/DaRReL/news/" %s


TOC of the extracted CD

Track | Start | Length | Start sector | End sector
––––––––––––––––––––––––––––-
1 | 0:00.00 | 3:16.55 | 0 | 14754
2 | 3:16.55 | 3:22.54 | 14755 | 29958
3 | 6:39.34 | 3:40.49 | 29959 | 46507
4 | 10:20.08 | 3:06.30 | 46508 | 60487
5 | 13:26.38 | 3:03.59 | 60488 | 74271
6 | 16:30.22 | 3:27.52 | 74272 | 89848
7 | 19:57.74 | 4:12.14 | 89849 | 108762
8 | 24:10.13 | 3:03.64 | 108763 | 122551
9 | 27:14.02 | 3:16.47 | 122552 | 137298
10 | 30:30.49 | 3:16.73 | 137299 | 152071
11 | 33:47.47 | 3:18.03 | 152072 | 166924
12 | 37:05.50 | 3:10.62 | 166925 | 181236
13 | 40:16.37 | 3:10.33 | 181237 | 195519
14 | 43:26.70 | 3:46.32 | 195520 | 212501


Range status and errors

Selected range

Filename E:\Audio in lossless\$ Pop & Disco $\A-TEENS © 2001 - The Definitive Collection (3CD)\A-TEENS - Teen Spirit.wav

Peak level 98.8 %
Range quality 100.0 %
Copy CRC E40F9919
Copy OK

No errors occurred

End of status report

AUDIOCHECKER v2.0 beta (build 457) - by Dester - opdester@freemail.hu
~~~~~~~~~~~~~~~~~~~~~~~~~~~~~~~~~~
-=== DO NOT EDIT THIS FILE! ===-

Path: …\A-TEENS © 2001 - The Definitive Collection (3CD)

1 -=- A-TEENS - Golden Single's.flac -=- CDDA (100%)
2 -=- A-TEENS - Teen Spirit.flac -=- CDDA (100%)
3 -=- A-TEENS - The ABBA Generation.flac -=- CDDA (100%)

Summary 100,00% CDDA

142130580

[Verification date: 27.11.2010 13:35:53]
[Disc ID: 00184d7d-01032cc0-be0b110e]
Disk not present in database.

Track [ CRC32 ] [W/O NULL] [ LOG ]
– [E40F9919] [425E0956] CRC32
01 [2858DDF2] [6DF6BCEC]
02 [D6201E31] [8AEF2398]
03 [233C6D2A] [50375B59]
04 [AF475C36] [97FAD283]
05 [682E4C75] [AD1BB983]
06 [77CBCCB8] [ED8F931A]
07 [DC7727DB] [D8B8A4D1]
08 [8C802066] [DA3434CF]
09 [1F4D38D9] [53EF8F63]
10 [4D7C62E0] [A0BB205E]
11 [9634A5F0] [4E44EC55]
12 [517CF42E] [3F86FB3C]
13 [30D14EA4] [36F3EC5B]
14 [E929C379] [81D2ED1A]

A-Teens - The Definitive Collection (2001)

CD3: Golden Single's (2001)

01. Dancing Queen (Album Version) [0:03:48.72]
02. Halfway Around The World (Radio Version) [0:03:41.05]
03. Upside Down (Album Version) [0:03:14.23]
04. Dancing Queen (Pierre J's Main Radio Mix) [0:03:25.62]
05. Halfway Around The World (Earthbound's Halfway Around The Earth Mix Long) [0:06:19.73]
06. Upside Down (Grizzly-Tysper Radio Remix) [0:03:48.30]
07. Dancing Queen (Pierre J's Main Extended Mix) [0:05:44.23]
08. Halfway Around The World (M 12 Massive Club Mix) [0:06:55.34]
09. Upside Down (Grizzly-Tysper Extended Remix) [0:04:44.65]
10. Dancing Queen (BTS Gold Edition Mix) [0:05:16.41]
11. Upside Down (JS16 Remix) [0:06:34.07]

Exact Audio Copy V0.99 prebeta 5 from 4. May 2009

EAC extraction logfile from 22. July 2010, 12:00

A-TEENS / Golden Single's

Used drive : Optiarc DVD RW AD-7203S Adapter: 3 ID: 1

Read mode : Secure
Utilize accurate stream : Yes
Defeat audio cache : Yes
Make use of C2 pointers : No

Read offset correction : 48
Overread into Lead-In and Lead-Out : No
Fill up missing offset samples with silence : Yes
Delete leading and trailing silent blocks : No
Null samples used in CRC calculations : Yes
Used interface : Installed external ASPI interface

Used output format : User Defined Encoder
Selected bitrate : 1024 kBit/s
Quality : High
Add ID3 tag : No
Command line compressor : C:\Program Files\Exact Audio Copy\Flac\flac.exe
Additional command line options : -0 -V -T "ARTIST=%a" -T "ALBUM=%g" -T "DATE=%y" -T "GENRE=%m" -T "COMMENT=released by KoGGaN" -T "URL=http://flacmusic.ru/user/DaRReL/news/" %s


TOC of the extracted CD

Track | Start | Length | Start sector | End sector
––––––––––––––––––––––––––––-
1 | 0:00.00 | 3:48.72 | 0 | 17171
2 | 3:48.72 | 3:41.05 | 17172 | 33751
3 | 7:30.02 | 3:14.23 | 33752 | 48324
4 | 10:44.25 | 3:25.62 | 48325 | 63761
5 | 14:10.12 | 6:19.73 | 63762 | 92259
6 | 20:30.10 | 3:48.30 | 92260 | 109389
7 | 24:18.40 | 5:44.23 | 109390 | 135212
8 | 30:02.63 | 6:55.34 | 135213 | 166371
9 | 36:58.22 | 4:44.65 | 166372 | 187736
10 | 41:43.12 | 5:16.41 | 187737 | 211477
11 | 46:59.53 | 6:34.07 | 211478 | 241034


Range status and errors

Selected range

Filename E:\Audio in lossless\$ Pop & Disco $\A-TEENS © 2001 - The Definitive Collection (3CD)\A-TEENS - Golden Single's.wav

Peak level 98.8 %
Range quality 100.0 %
Copy CRC D9190F6C
Copy OK

No errors occurred

End of status report

AUDIOCHECKER v2.0 beta (build 457) - by Dester - opdester@freemail.hu
~~~~~~~~~~~~~~~~~~~~~~~~~~~~~~~~~~
-=== DO NOT EDIT THIS FILE! ===-

Path: …\A-TEENS © 2001 - The Definitive Collection (3CD)

1 -=- A-TEENS - Golden Single's.flac -=- CDDA (100%)
2 -=- A-TEENS - Teen Spirit.flac -=- CDDA (100%)
3 -=- A-TEENS - The ABBA Generation.flac -=- CDDA (100%)

Summary 100,00% CDDA

142130580

[Verification date: 27.11.2010 13:35:21]
[Disc ID: 0013ef80-00b1a4f5-700c8d0b]
HDCD: peak extend: none, transient filter: none, gain: none
Track [ CRC ] Status
01 [323c4c5b] (01/01) Accurately ripped as in pressing(s) #1
02 [53621567] (01/01) Accurately ripped as in pressing(s) #1
03 [3d7f7a03] (01/01) Accurately ripped as in pressing(s) #1
04 [d409a92d] (01/01) Accurately ripped as in pressing(s) #1
05 [30c79855] (01/01) Accurately ripped as in pressing(s) #1
06 [0bca7ae4] (01/01) Accurately ripped as in pressing(s) #1
07 [b3841e4b] (01/01) Accurately ripped as in pressing(s) #1
08 [7181026e] (01/01) Accurately ripped as in pressing(s) #1
09 [277ad510] (01/01) Accurately ripped as in pressing(s) #1
10 [389d64a2] (01/01) Accurately ripped as in pressing(s) #1
11 [ba09dc97] (01/01) Accurately ripped as in pressing(s) #1

Track [ CRC32 ] [W/O NULL] [ LOG ]
– [D9190F6C] [B68AB1A4] CRC32
01 [C84EC67E] [E87E9C2A]
02 [1CD12108] [69C198E1]
03 [E6F9383F] [4F16E4F4]
04 [FC28BA4E] [BE100B27]
05 [CAEE8FB6] [9AE745CA]
06 [4409DC3D] [11CA1638]
07 [B83C55FA] [25690236]
08 [BED130DC] [47D5131A]
09 [74E3FCEE] [730280FB]
10 [89EC2C75] [C5393258]
11 [35EE2807] [DAB50F64]

A-Teens - The Definitive Collection (2001)

Download A-Teens - The Definitive Collection (2001):

FileSonic: Flac - Part1 | Flac - Part2 | Flac - Part3 | Flac - Part4 | Flac - Part5 | MP3 - Part1 | MP3 - Part2
FileServe: Flac - Part1 | Flac - Part2 | Flac - Part3 | Flac - Part4 | Flac - Part5 | MP3 - Part1 | MP3 - Part2
Uploaded: Flac - Part1 | Flac - Part2 | Flac - Part3 | Flac - Part4 | Flac - Part5 | MP3 - Part1 | MP3 - Part2

In case you encounter dead links, please send me a private message.

All thanks go to the original releaser …