Subcategories

AC/DC - No Bull (Director's Cut) (2008) [BDRip 720p]

Posted By: juanchito
AC/DC - No Bull (Director's Cut) (2008) [BDRip 720p]

AC/DC - No Bull (Director's Cut) (2008)
BDRip 720p | MKV | 1280x720, 29.970 fps, x264, 2PASS HIGH@L4.1, ~7667 Kbps avg
Audio: 6ch DTS, ~1536.00 kbps avg | Length: 02:03:34 | 7.93 GB
Genre: Rock, Hard Rock | Nitroflare/Filefactory


«No Bull» is a live video released by AC/DC in November 1996, filmed on Super 16mm at Madrid's Plaza de Toros de Las Ventas on 10 July 1996 during the Ballbreaker world tour. It was directed by David Mallet, produced by Rocky Oldham, edited by David Gardener and Simon Hilton; production company was Serpent Films.

The show, involving cranes, a large model of "Rosie" and a finale with half a dozen blazing cannons, features 20 live tracks spanning their then 20 year career. It features 4 tracks from Ballbreaker, as well as other classic songs by the band.

On 8 September 2008 a director's cut edition entitled «No Bull»: The Director's Cut was released in the DVD and Blu-ray formats. This will feature the original concert as well as three new extra features.

AC/DC - No Bull (Director's Cut) (2008) [BDRip 720p]



Tracklist:
01. Back In Black
02. Shot Down In Flames
03. Thunderstruck
04. Girl's Got Rhythm
05. Hard As A Rock
06. Shoot To Thrill
07. Boogie Man
08. Hail Caesar
09. Hells Bells
10. Dog Eat Dog
11. The Jack
12. Ballbreaker
13. Rock And Roll Ain't Noise Pollution
14. Dirty Deeds Done Dirt Cheap
15. You Shook Me All Night Long
16. Whole Lotta Rosie
17. T.N.T.
18. Let There Be Rock
19. Highway To Hell
20. For Those About To Rock (We Salute You)


General
Unique ID : 217038388884413053674732116391158781149 (0xA34812BEC4E305C6A02C5BB33EAA94DD)
Complete name : \\psf\Home\Downloads\ACDC.No.Bull.Dir.Cut.2008.720p.mkv
Format : Matroska
File size : 7.93 GiB
Duration : 2h 3mn
Overall bit rate : 9 181 Kbps
Encoded date : UTC 2008-09-14 23:47:55
Writing application : mkvmerge v2.2.0 ('Turn It On Again') built on Mar 4 2008 12:58:26
Writing library : libebml v0.7.7 + libmatroska v0.8.1

Video
ID : 1
Format : AVC
Format/Info : Advanced Video Codec
Format profile : High@L4.1
Format settings, CABAC : Yes
Format settings, ReFrames : 9 frames
Codec ID : V_MPEG4/ISO/AVC
Duration : 2h 3mn
Bit rate : 7 667 Kbps
Width : 1 280 pixels
Height : 720 pixels
Display aspect ratio : 16:9
Frame rate : 29.970 fps
Color space : YUV
Chroma subsampling : 4:2:0
Bit depth : 8 bits
Scan type : Progressive
Bits/(Pixel*Frame) : 0.278
Stream size : 6.47 GiB (82%)
Title : x264
Writing library : x264 core 61 r967M 869d5e4
Encoding settings : cabac=1 / ref=9 / deblock=1:-3:-3 / analyse=0x3:0x113 / me=umh / subme=7 / psy_rd=1.0:0.0 / brdo=1 / mixed_ref=1 / me_range=16 / chroma_me=1 / trellis=0 / 8x8dct=1 / cqm=2 / deadzone=21,11 / chroma_qp_offset=-2 / threads=3 / nr=0 / decimate=0 / mbaff=0 / bframes=3 / b_pyramid=1 / b_adapt=1 / b_bias=0 / direct=1 / wpredb=1 / bime=1 / keyint=250 / keyint_min=25 / scenecut=40(pre) / rc=2pass / bitrate=7667 / ratetol=1.0 / qcomp=1.00 / qpmin=10 / qpmax=51 / qpstep=4 / cplxblur=20.0 / qblur=0.5 / ip_ratio=1.40 / pb_ratio=1.30 / aq=2:1.00
Language : English

Audio
ID : 2
Format : DTS
Format/Info : Digital Theater Systems
Format profile : 96/24 / Core
Codec ID : A_DTS
Duration : 2h 3mn
Bit rate mode : Constant
Bit rate : 1 510 Kbps
Channel(s) : 6 channels
Channel positions : Front: L C R, Side: L R, LFE
Sampling rate : 96.0 KHz / 48.0 KHz
Bit depth : 24 bits
Compression mode : Lossy
Stream size : 1.30 GiB (16%)
Title : DTS 1536Kbps
Language : English

Menu
00:00:00.000 : en:00:00:00.000
00:01:59.720 : en:00:01:59.720
00:06:17.077 : en:00:06:17.077
00:09:57.597 : en:00:09:57.597
00:15:25.124 : en:00:15:25.124
00:19:28.367 : en:00:19:28.367
00:24:17.790 : en:00:24:17.790
00:29:48.420 : en:00:29:48.420
00:40:16.714 : en:00:40:16.714
00:45:58.990 : en:00:45:58.990
00:52:03.654 : en:00:52:03.654
00:56:57.180 : en:00:56:57.180
01:03:34.944 : en:01:03:34.944
01:08:15.959 : en:01:08:15.959
01:13:21.530 : en:01:13:21.530
01:18:05.948 : en:01:18:05.948
01:22:01.550 : en:01:22:01.550
01:27:21.636 : en:01:27:21.636
01:31:06.461 : en:01:31:06.461
01:47:25.539 : en:01:47:25.539
01:51:52.039 : en:01:51:52.039
01:59:02.402 : en:01:59:02.402
02:03:39.078 : en:02:03:39.078




Thanks to the original uploader