Subcategories

A.C. Reed - I'm In The Wrong Business! (1987) [Re-Up]

Posted By: Designol
A.C. Reed - I'm In The Wrong Business! (1987) [Re-Up]

A.C. Reed - I'm In The Wrong Business! (1987)
EAC | FLAC | Image (Cue&Log) ~ 324 Mb | Mp3 (CBR320) ~ 138 Mb | Scans included
Electric Chicago Blues, Soul-Blues | Label: Alligator | # ALCD 4757 | Time: 00:51:55

Solid, soulful blues, often with humorous, self-deprecating lyrics, comes from the well-respected vocalist, tenor player, composer, and veteran of the bands of Albert Collins, Buddy Guy, Magic Sam, and Son Seals. Reed has been called "the definitive Chicago blues sax player." This album features Reed's band, with guests Bonnie Raitt and Stevie Ray Vaughan.

Review by Niles J. Frantz, Allmusic.com

A.C. Reed - I'm In The Wrong Business! (1987) [Re-Up]



Tracklist:

01. I'm In The Wrong Business (04:30)
02. I Can't Go On This Way (04:05)
03. Fast Food Annie (04:27)
04. This Little Voice (05:34)
05. My Buddy Buddy Friends (03:18)
06. She's Fine (04:30)
07. These Blues Is Killing Me (03:08)
08. Miami Strut (02:57)
09. The Things I Want You To Do (03:37)
10. Don't Drive Drunk (04:27)
11. Hard Times (03:19)
12. Going To New York (04:05)
13. Moving Out Of The Ghetto (03:53)


Exact Audio Copy V0.99 prebeta 4 from 23. January 2008

EAC extraction logfile from 19. September 2009, 20:37

A.C. Reed / I'm In The Wrong Business

Used drive : PLEXTOR CD-R PX-230A Adapter: 1 ID: 1

Read mode : Secure
Utilize accurate stream : Yes
Defeat audio cache : Yes
Make use of C2 pointers : No

Read offset correction : 738
Overread into Lead-In and Lead-Out : No
Fill up missing offset samples with silence : Yes
Delete leading and trailing silent blocks : No
Null samples used in CRC calculations : Yes
Used interface : Installed external ASPI interface

Used output format : User Defined Encoder
Selected bitrate : 1024 kBit/s
Quality : High
Add ID3 tag : No
Command line compressor : C:\Program Files\Exact Audio Copy\FLAC\FLAC.EXE
Additional command line options : -6 -V -T "ARTIST=%a" -T "TITLE=%t" -T "ALBUM=%g" -T "DATE=%y" -T "TRACKNUMBER=%n" -T "GENRE=%m" -T "COMMENT=%e" %s -o %d


TOC of the extracted CD

Track | Start | Length | Start sector | End sector
––––––––––––––––––––––––––––-
1 | 0:00.00 | 4:30.42 | 0 | 20291
2 | 4:30.42 | 4:05.05 | 20292 | 38671
3 | 8:35.47 | 4:27.50 | 38672 | 58746
4 | 13:03.22 | 5:34.25 | 58747 | 83821
5 | 18:37.47 | 3:18.25 | 83822 | 98696
6 | 21:55.72 | 4:30.50 | 98697 | 118996
7 | 26:26.47 | 3:08.25 | 118997 | 133121
8 | 29:34.72 | 2:57.50 | 133122 | 146446
9 | 32:32.47 | 3:37.25 | 146447 | 162746
10 | 36:09.72 | 4:27.00 | 162747 | 182771
11 | 40:36.72 | 3:19.38 | 182772 | 197734
12 | 43:56.35 | 4:05.12 | 197735 | 216121
13 | 48:01.47 | 3:53.73 | 216122 | 233669


Range status and errors

Selected range

Filename J:\Rips\A.C. Reed - I'm In The Wrong Business.wav

Peak level 98.0 %
Range quality 100.0 %
Test CRC 0044C14E
Copy CRC 0044C14E
Copy OK

No errors occurred


AccurateRip summary

Track 1 cannot be verified as accurate (confidence 2) [2E88C144], AccurateRip returned [4A3360AC]
Track 2 cannot be verified as accurate (confidence 2) [D13D72DE], AccurateRip returned [A724716D]
Track 3 cannot be verified as accurate (confidence 2) [FD32BB50], AccurateRip returned [B8152393]
Track 4 cannot be verified as accurate (confidence 2) [98D3E57F], AccurateRip returned [8976D737]
Track 5 cannot be verified as accurate (confidence 2) [92596BC2], AccurateRip returned [F746D3B4]
Track 6 cannot be verified as accurate (confidence 2) [965112AD], AccurateRip returned [478D8D35]
Track 7 cannot be verified as accurate (confidence 2) [0E04A370], AccurateRip returned [232E6638]
Track 8 cannot be verified as accurate (confidence 2) [3C193AD8], AccurateRip returned [1BFCB9AA]
Track 9 cannot be verified as accurate (confidence 2) [EB21B9F6], AccurateRip returned [5EE842CA]
Track 10 cannot be verified as accurate (confidence 2) [C5DB6D7D], AccurateRip returned [D9864805]
Track 11 cannot be verified as accurate (confidence 2) [3E7A3E67], AccurateRip returned [0F027DCD]
Track 12 cannot be verified as accurate (confidence 2) [15A4294F], AccurateRip returned [D5232A75]
Track 13 cannot be verified as accurate (confidence 2) [CCB4C3D7], AccurateRip returned [26FADD72]

No tracks could be verified as accurate
You may have a different pressing from the one(s) in the database

End of status report

[CUETools log; Date: 04.03.2016 17:06:09; Version: 2.1.4]
[CTDB TOCID: zdihXxWE97RV0NP.J4N2CYJ9ASk-] found.
Track | CTDB Status
1 | (7/8) Accurately ripped
2 | (7/8) Accurately ripped
3 | (7/8) Accurately ripped
4 | (7/8) Accurately ripped
5 | (7/8) Accurately ripped
6 | (8/8) Accurately ripped
7 | (7/8) Accurately ripped
8 | (7/8) Accurately ripped
9 | (7/8) Accurately ripped
10 | (7/8) Accurately ripped
11 | (7/8) Accurately ripped
12 | (7/8) Accurately ripped
13 | (7/8) Accurately ripped
[AccurateRip ID: 0019d0c2-00fefbcf-c80c2b0d] found.
Track [ CRC | V2 ] Status
01 [2e88c144|bbd4e958] (3+3/9) Accurately ripped
02 [d13d72de|44642942] (3+3/9) Accurately ripped
03 [fd32bb50|5188cacb] (3+3/9) Accurately ripped
04 [98d3e57f|ed9447c9] (3+3/9) Accurately ripped
05 [92596bc2|2171cf56] (3+3/9) Accurately ripped
06 [965112ad|3dc850b5] (3+3/9) Accurately ripped
07 [0e04a370|12bc4df4] (3+3/9) Accurately ripped
08 [3c193ad8|d95023d4] (3+3/9) Accurately ripped
09 [eb21b9f6|f0b3bbb6] (3+3/9) Accurately ripped
10 [c5db6d7d|908eab72] (3+3/9) Accurately ripped
11 [3e7a3e67|7eca9fff] (3+3/9) Accurately ripped
12 [15a4294f|8afbc50b] (3+2/8) Accurately ripped
13 [ccb4c3d7|06a4f676] (3+2/8) Accurately ripped
Offsetted by -248:
01 [4a3360ac] (3/9) Accurately ripped
02 [a724716d] (3/9) Accurately ripped
03 [b8152393] (3/9) Accurately ripped
04 [8976d737] (3/9) Accurately ripped
05 [f746d3b4] (3/9) Accurately ripped
06 [478d8d35] (3/9) Accurately ripped
07 [232e6638] (3/9) Accurately ripped
08 [1bfcb9aa] (3/9) Accurately ripped
09 [5ee842ca] (3/9) Accurately ripped
10 [d9864805] (3/9) Accurately ripped
11 [0f027dcd] (3/9) Accurately ripped
12 [d5232a75] (3/8) Accurately ripped
13 [26fadd72] (3/8) Accurately ripped

Track Peak [ CRC32 ] [W/O NULL] [ LOG ]
– 98,0 [0044C14E] [AE115E76] CRC32
01 93,0 [9DB5F51D] [88CC975D]
02 82,2 [DD5490CC] [C7F2E0FE]
03 81,1 [B4488191] [D241E9B4]
04 68,8 [7EC03B53] [2AFD0920]
05 74,0 [5008FD70] [C838E11A]
06 79,8 [812A0F8D] [2A04CF7F]
07 83,9 [7FF4A234] [5DF58352]
08 68,1 [38BA352C] [C59F7654]
09 90,5 [BF5B92E7] [970CB173]
10 85,3 [224DC0F4] [BF2F42F2]
11 98,0 [EC4E8FB4] [A5C16A98]
12 78,2 [4020A72B] [D013C5DD]
13 91,3 [5A014F89] [7C453702]

foobar2000 1.2 / Dynamic Range Meter 1.1.1
log date: 2016-03-04 16:28:43

––––––––––––––––––––––––––––––––––––––––
Analyzed: A.C. Reed / I'm In The Wrong Business
––––––––––––––––––––––––––––––––––––––––

DR Peak RMS Duration Track
––––––––––––––––––––––––––––––––––––––––
DR15 -0.63 dB -18.30 dB 4:31 01-I'm In The Wrong Business
DR15 -1.70 dB -19.75 dB 4:05 02-I Can't Go On This Way
DR16 -1.82 dB -19.62 dB 4:28 03-Fast Food Annie
DR14 -3.24 dB -19.63 dB 5:34 04-This Little Voice
DR15 -2.61 dB -20.59 dB 3:18 05-My Buddy Buddy Friends
DR13 -1.96 dB -17.97 dB 4:31 06-She's Fine
DR13 -1.52 dB -17.14 dB 3:08 07-These Blues Is Killing Me
DR14 -3.33 dB -19.68 dB 2:58 08-Miami Strut
DR15 -0.86 dB -18.44 dB 3:37 09-The Things I Want You To Do
DR16 -1.37 dB -19.61 dB 4:27 10-Don't Drive Drunk
DR16 -0.17 dB -18.42 dB 3:20 11-Hard Times
DR15 -2.13 dB -18.05 dB 4:05 12-Going To New York
DR15 -0.79 dB -17.48 dB 3:54 13-Moving Out Of The Ghetto
––––––––––––––––––––––––––––––––––––––––

Number of tracks: 13
Official DR value: DR15

Samplerate: 44100 Hz
Channels: 2
Bits per sample: 16
Bitrate: 820 kbps
Codec: FLAC
================================================================================

A.C. Reed - I'm In The Wrong Business! (1987) [Re-Up]

A.C. Reed - I'm In The Wrong Business! (1987) [Re-Up]

All thanks to original releaser - рмх222

More interesting music in My Blog