Subcategories

A.C.T - Imaginary Friends (2001) [Japanese Ed.]

Posted By: Andi_Deris
A.C.T - Imaginary Friends (2001) [Japanese Ed.]

A.C.T - Imaginary Friends (2001) [Japanese Ed.]
EAC Rip | FLAC: Image+Cue+Log | 459 Mb | MP3 CBR 320 kbps | 158 Mb | Scans | 103 Mb | Time: 01:01:29
Marquee Inc./Avalon | MICP-10234
Progressive Rock, Symphonic/Eclectic Prog

'Imaginary Friends' is the second album from A.C.T, and is another solid effort from the group. As with 'Today's Report', the album has several tracks followed by a suite. However, in this case there is a hidden song, "Catherine", after the suite. In addition, the Japanese release of this CD also includes a bonus track, which was a demo from 1996 called "New Age Polka".

A.C.T - Imaginary Friends (2001) [Japanese Ed.]




A.C.T - Imaginary Friends (2001) [Japanese Ed.]


Track Listing

01. Take It Easy (4:27)
02. Hippest Flop (4:48)
03. A Supposed Tour (4:41)
04. Biggest Mistake (7:49)
05. Imaginary Friends (5:50)
06. She/Male (4:47)
Relationships (the long one):
07. vii) At The Altar (0:38)
08. viii) Svetlana (3:42)
09. ix) No Perspective (1:06)
10. x) Second Thoughts (0:54)
11. xi) Mr. Unfaithful (7:04)
12. xii) Gamophobia (0:46)
13. xiii) Little Beauty (4:18)
14. xiv) Happily Ever After (7:25)
15. New Age Polka [demo from '96] (Bonus track for Japan) (3:14)

Produced by A.C.T and Pelle Saether

The Band

• Jerry Sahlin - synthesizers, lead & backing vocals
• Ola Andersson - guitars, backing vocals
• Peter Asp - bass, percussion, backing vocals
• Herman Saming - lead & backing vocals, silent trumpet
• Tomas Erlandsson - drums, percussion, backing vocals, lead vocals & keyboards in "Catherine"

Notes

The band really let fly their musical ability on this album, from the quirky 'Hippest Flop' through to the epic 'She/male Relationships (The Long One)' they keep the listener hooked.

Exact Audio Copy V1.0 beta 3 from 29. August 2011

EAC extraction logfile from 20. February 2014, 22:46

A.C.T / Imaginary Friends

Used drive : SlimtypeDVD A DS8A5SH Adapter: 0 ID: 1

Read mode : Secure
Utilize accurate stream : Yes
Defeat audio cache : Yes
Make use of C2 pointers : No

Read offset correction : 6
Overread into Lead-In and Lead-Out : No
Fill up missing offset samples with silence : Yes
Delete leading and trailing silent blocks : No
Null samples used in CRC calculations : Yes
Used interface : Native Win32 interface for Win NT & 2000

Used output format : User Defined Encoder
Selected bitrate : 320 kBit/s
Quality : High
Add ID3 tag : No
Command line compressor : C:\Program Files (x86)\Exact Audio Copy\Flac\flac.exe
Additional command line options : -V -8 -T "Date=%year%" -T "Genre=%genre%" %source%


TOC of the extracted CD

Track | Start | Length | Start sector | End sector
––––––––––––––––––––––––––––-
1 | 0:00.00 | 4:27.52 | 0 | 20076
2 | 4:27.52 | 4:48.30 | 20077 | 41706
3 | 9:16.07 | 4:41.65 | 41707 | 62846
4 | 13:57.72 | 7:49.33 | 62847 | 98054
5 | 21:47.30 | 5:50.47 | 98055 | 124351
6 | 27:38.02 | 4:47.70 | 124352 | 145946
7 | 32:25.72 | 0:38.53 | 145947 | 148849
8 | 33:04.50 | 3:42.57 | 148850 | 165556
9 | 36:47.32 | 1:06.63 | 165557 | 170569
10 | 37:54.20 | 0:54.07 | 170570 | 174626
11 | 38:48.27 | 7:04.45 | 174627 | 206471
12 | 45:52.72 | 0:46.30 | 206472 | 209951
13 | 46:39.27 | 4:18.65 | 209952 | 229366
14 | 50:58.17 | 7:25.18 | 229367 | 262759
15 | 58:23.35 | 3:14.00 | 262760 | 277309


Range status and errors

Selected range

Filename D:\My Music\A.C.T - Japanese Lossless Discography\A.C.T - 2001 Imaginary Friends\A.C.T - Imaginary Friends.wav

Peak level 100.0 %
Extraction speed 1.8 X
Range quality 99.9 %
Test CRC 639068B6
Copy CRC 639068B6
Copy OK

No errors occurred


AccurateRip summary

Track 1 accurately ripped (confidence 3) [CC0CF988] (AR v1)
Track 2 accurately ripped (confidence 2) [1EAC60BA] (AR v2)
Track 3 accurately ripped (confidence 2) [948AAC0E] (AR v2)
Track 4 accurately ripped (confidence 2) [1165A353] (AR v2)
Track 5 accurately ripped (confidence 2) [9BE998BD] (AR v2)
Track 6 accurately ripped (confidence 2) [DC84AAC4] (AR v2)
Track 7 accurately ripped (confidence 2) [85874C54] (AR v2)
Track 8 accurately ripped (confidence 2) [848A8AE8] (AR v2)
Track 9 accurately ripped (confidence 2) [DD0F1E89] (AR v2)
Track 10 accurately ripped (confidence 2) [109F8C50] (AR v2)
Track 11 accurately ripped (confidence 2) [6CCF85BC] (AR v2)
Track 12 accurately ripped (confidence 2) [700953CC] (AR v2)
Track 13 accurately ripped (confidence 2) [9C909400] (AR v2)
Track 14 accurately ripped (confidence 2) [3B162EEA] (AR v2)
Track 15 accurately ripped (confidence 2) [CCA67884] (AR v2)

All tracks accurately ripped

End of status report

==== Log checksum 6B1D554AFC8B705D0D5577CCDAC42B7CE773CC1F4F2D6F55636FE04A5D7D40B9 ====


Many thanks to the original uploader: kolushew

SEE also:
A.C.T 1999 Today's Report [Japanese Ed.]
A.C.T 2003 Last Epic [Japanese Ed.]
A.C.T 2006 Silence [Japanese Ed.]
A.C.T 2014 Circus Pandemonium [Japanese Ed.]