Subcategories

VA - Absolute Dance 15 (1997)

Posted By: v3122
VA - Absolute Dance 15 (1997)

VA - Absolute Dance 15 (1997)
EAC | Flac(Image) + Cue + Log & MP3 CBR 320Kbps
EVA Records, EVACD 5035 | ~ 552 or 179 Mb | Artwork(jpg) -> 5.31 Mb
Euro House, Eurodance, Electronic, Hip Hop, Latin, Pop

~ Princessa, Chilli feat. Carrapicho, George Michael, Los Umbrellos, Spice Girls … ~

VA - Absolute Dance 15 (1997):

VA - Absolute Dance 15 (1997)

Tracklist:

01. Princessa - Vivo (03:48)
02. Chilli feat. Carrapicho - Tic, Tic Tac (03:45)
03. Melodie MC feat. Jocelyn Brown - Real Man (03:48)
04. Spice Girls - Who Do You Think You Are (03:43)
05. Mephisto - Mystery (Of Love) (04:10)
06. George Michael - Star People 97 (Forthright edit) (04:27)
07. Shola Ama - You Might Need Somebody (03:50)
08. Eric Gadd - My Personality (03:25)
09. Olive - You're Not Alone (04:10)
10. DJ Red 5 - I Love You… Stop! (03:47)
11. Bellini - Samba de Janeiro (02:48)
12. DeDe - My Lover (03:15)
13. Apollo 440 - Ain't Talkin' Bout (dub) (03:55)
14. Jane Fostin - La Taille de Ton Amour (03:43)
15. B.B.E. - Flash (03:56)
16. Gala - Let a Boy Cry (03:24)
17. Los Umbrellos - No Tengo Dinero (03:35)
18. Tellus - The Man With Background (03:33)
19. Blacknuss feat. Nai-Jee-Ria & ADL - Last Night a DJ Saved My Life (04:33)
20. The Notorious B.I.G. - Hypnotize (03:58)

Exact Audio Copy V1.3 from 2. September 2016

Отчёт EAC об извлечении, выполненном 15. мая 2019, 9:43

VA / Absolute Dance 15

Дисковод: PIONEER DVD-RW DVR-109 Adapter: 2 ID: 2

Режим чтения : Достоверность
Использование точного потока : Да
Отключение кэша аудио : Да
Использование указателей C2 : Нет

Коррекция смещения при чтении : 48
Способность читать области Lead-in и Lead-out : Нет
Заполнение пропущенных сэмплов тишиной : Да
Удаление блоков с тишиной в начале и конце : Нет
При вычислениях CRC использовались нулевые сэмплы : Да
Интерфейс : Установленный внешний ASPI-интерфейс

Выходной формат : Пользовательский кодировщик
Выбранный битрейт : 128 kBit/s
Качество : Высокий
Добавление ID3-тега : Нет
Утилита сжатия : C:\Program Files\Exact Audio Copy\FLAC\FLAC.EXE
Дополнительные параметры : -V -8 -T "Genre=%genre%" -T "Artist=%artist%" -T "Title=%title%" -T "Album=%albumtitle%" -T "Date=%year%" -T "Tracknumber=%tracknr%" -T "Comment=%comment%" %source%


TOC извлечённого CD

Трек | Старт | Длительность | Начальный сектор | Конечный сектор
––––––––––––––––––––––––––––––––––-
1 | 0:00.00 | 3:48.65 | 0 | 17164
2 | 3:48.65 | 3:45.10 | 17165 | 34049
3 | 7:34.00 | 3:48.15 | 34050 | 51164
4 | 11:22.15 | 3:43.40 | 51165 | 67929
5 | 15:05.55 | 4:10.72 | 67930 | 86751
6 | 19:16.52 | 4:27.58 | 86752 | 106834
7 | 23:44.35 | 3:50.10 | 106835 | 124094
8 | 27:34.45 | 3:25.50 | 124095 | 139519
9 | 31:00.20 | 4:10.40 | 139520 | 158309
10 | 35:10.60 | 3:47.25 | 158310 | 175359
11 | 38:58.10 | 2:48.50 | 175360 | 188009
12 | 41:46.60 | 3:15.40 | 188010 | 202674
13 | 45:02.25 | 3:55.15 | 202675 | 220314
14 | 48:57.40 | 3:43.40 | 220315 | 237079
15 | 52:41.05 | 3:56.60 | 237080 | 254839
16 | 56:37.65 | 3:24.40 | 254840 | 270179
17 | 60:02.30 | 3:35.40 | 270180 | 286344
18 | 63:37.70 | 3:33.35 | 286345 | 302354
19 | 67:11.30 | 4:33.70 | 302355 | 322899
20 | 71:45.25 | 3:58.05 | 322900 | 340754


Характеристики диапазона извлечения и сообщения об ошибках

Выбранный диапазон

Имя файла I:\MOI_RAZDACI\VA_Absolute.Dance 2 - 8 - 15\VA_Absolute.Dance_2_8_15\VA_Absolute.Dance_15_1997\VA - Absolute Dance 15.wav

Пиковый уровень 100.0 %
Скорость извлечения 7.9 X
Качество диапазона 99.9 %
CRC теста 8BA27B2A
CRC копии 8BA27B2A
Копирование… OK

Ошибок не произошло


AccurateRip: сводка

Трек 1 : извлечено точно (доверие 9) [6F98623E] (AR v2)
Трек 2 : извлечено точно (доверие 9) [1CB535AC] (AR v2)
Трек 3 : извлечено точно (доверие 9) [1F7AE9B4] (AR v2)
Трек 4 : извлечено точно (доверие 9) [907A4B0E] (AR v2)
Трек 5 : извлечено точно (доверие 9) [27753DAA] (AR v2)
Трек 6 : извлечено точно (доверие 9) [C05B6E5C] (AR v2)
Трек 7 : извлечено точно (доверие 9) [4D027F37] (AR v2)
Трек 8 : извлечено точно (доверие 9) [2D7E6C34] (AR v2)
Трек 9 : извлечено точно (доверие 9) [43A81F2B] (AR v2)
Трек 10 : извлечено точно (доверие 9) [6C33FB7F] (AR v2)
Трек 11 : извлечено точно (доверие 9) [06A2779E] (AR v2)
Трек 12 : извлечено точно (доверие 9) [4549CBA8] (AR v2)
Трек 13 : извлечено точно (доверие 9) [D62FF242] (AR v2)
Трек 14 : извлечено точно (доверие 9) [5759DAB7] (AR v2)
Трек 15 : извлечено точно (доверие 9) [DE4964A0] (AR v2)
Трек 16 : извлечено точно (доверие 9) [B4FB8E7E] (AR v2)
Трек 17 : извлечено точно (доверие 9) [79636495] (AR v2)
Трек 18 : извлечено точно (доверие 9) [4B1E602B] (AR v2)
Трек 19 : извлечено точно (доверие 9) [3E06498D] (AR v2)
Трек 20 : извлечено точно (доверие 9) [EADD4F20] (AR v2)

Все треки извлечены точно

Конец отчёта

–– CUETools DB Plugin V2.1.6

[CTDB TOCID: hqzPCrnoeGe5OXFuLMKbAv81jUw-] found
Submit result: hqzPCrnoeGe5OXFuLMKbAv81jUw- has been confirmed
Track | CTDB Status
1 | (23/23) Accurately ripped
2 | (22/23) Accurately ripped
3 | (23/23) Accurately ripped
4 | (23/23) Accurately ripped
5 | (23/23) Accurately ripped
6 | (23/23) Accurately ripped
7 | (23/23) Accurately ripped
8 | (23/23) Accurately ripped
9 | (23/23) Accurately ripped
10 | (23/23) Accurately ripped
11 | (15/23) Accurately ripped, or (8/23) differs in 24 samples @00:11:66,00:12:43
12 | (23/23) Accurately ripped
13 | (23/23) Accurately ripped
14 | (21/23) Accurately ripped
15 | (21/23) Accurately ripped
16 | (21/23) Accurately ripped
17 | (21/23) Accurately ripped
18 | (21/23) Accurately ripped
19 | (21/23) Accurately ripped
20 | (21/23) Accurately ripped


==== Контрольная сумма отчёта E7B27D1E8831F5850F2001BF37544C4EE8E4D4744CAE321A791920EB6C3F4BA5 ====


[CUETools log; Date: 22.05.2019 12:07:59; Version: 2.1.4]
[AccurateRip ID: 0036ba4d-031fef0f-1911bf14] found.
Track [ CRC | V2 ] Status
01 [ec6b0fb8|6f98623e] (09+09/25) Accurately ripped
02 [82c4d597|1cb535ac] (09+09/26) Accurately ripped
03 [a710508d|1f7ae9b4] (09+09/25) Accurately ripped
04 [a312a6b3|907a4b0e] (09+09/25) Accurately ripped
05 [105732ee|27753daa] (09+09/26) Accurately ripped
06 [0f2086cc|c05b6e5c] (08+09/25) Accurately ripped
07 [f06accf6|4d027f37] (09+09/26) Accurately ripped
08 [0750db0c|2d7e6c34] (09+09/26) Accurately ripped
09 [2f2a8878|43a81f2b] (10+09/27) Accurately ripped
10 [daee259d|6c33fb7f] (09+09/26) Accurately ripped
11 [dea13adb|06a2779e] (09+09/26) Accurately ripped
12 [12f40705|4549cba8] (09+09/26) Accurately ripped
13 [339eb354|d62ff242] (09+09/26) Accurately ripped
14 [3c6db89f|5759dab7] (09+09/26) Accurately ripped
15 [1cedfdc9|de4964a0] (09+09/26) Accurately ripped
16 [18502d88|b4fb8e7e] (09+09/26) Accurately ripped
17 [dac33834|79636495] (09+09/26) Accurately ripped
18 [9b646642|4b1e602b] (09+09/26) Accurately ripped
19 [36d172cf|3e06498d] (09+09/24) Accurately ripped
20 [13cc46b3|eadd4f20] (09+09/21) Accurately ripped
Offsetted by 339:
01 [ef222ae8] (02/25) Accurately ripped
02 [8603b671] (03/26) Accurately ripped
03 [7694ad95] (02/25) Accurately ripped
04 [f61698b2] (02/25) Accurately ripped
05 [10ec745a] (03/26) Accurately ripped
06 [37a3bc4f] (03/25) Accurately ripped
07 [a78dbbfe] (03/26) Accurately ripped
08 [712e49b6] (03/26) Accurately ripped
09 [151be43e] (03/27) Accurately ripped
10 [f199db09] (03/26) Accurately ripped
11 [18ee7b35] (00/26) No match (V2 was not tested)
12 [1ee3a4e0] (03/26) Accurately ripped
13 [2ee75eee] (03/26) Accurately ripped
14 [ef8d007a] (03/26) Accurately ripped
15 [02e2b426] (03/26) Accurately ripped
16 [858cb913] (03/26) Accurately ripped
17 [d6b04485] (03/26) Accurately ripped
18 [a3b2a0d9] (03/26) Accurately ripped
19 [09ec1551] (04/24) Accurately ripped
20 [25ba897c] (03/21) Accurately ripped
Offsetted by 799:
01 [c8875fa8] (03/25) Accurately ripped
02 [345480d9] (03/26) Accurately ripped
03 [2f81adb5] (03/25) Accurately ripped
04 [91c75f2e] (03/25) Accurately ripped
05 [945b9c0a] (03/26) Accurately ripped
06 [945ed6db] (03/25) Accurately ripped
07 [a0d0041e] (03/26) Accurately ripped
08 [c5ee035e] (03/26) Accurately ripped
09 [c2ac3c45] (03/27) Accurately ripped
10 [702b212a] (03/26) Accurately ripped
11 [d408039d] (00/26) No match (V2 was not tested)
12 [c55ce4cc] (03/26) Accurately ripped
13 [e78f7456] (03/26) Accurately ripped
14 [1e43e866] (03/26) Accurately ripped
15 [82a9191a] (03/26) Accurately ripped
16 [397e37bf] (03/26) Accurately ripped
17 [8360ef49] (03/26) Accurately ripped
18 [efe96db5] (03/26) Accurately ripped
19 [4bde6259] (00/24) No match (V2 was not tested)
20 [9af1c220] (00/21) No match (V2 was not tested)

Track Peak [ CRC32 ] [W/O NULL] [ LOG ]
– 100,0 [8BA27B2A] [664C9325] CRC32
01 93,6 [BD781916] [CD26D137]
02 96,3 [4999F8A1] [A357ECCE]
03 97,6 [778073A1] [A570A8BD]
04 97,2 [C9B83DE2] [38713EF5]
05 95,3 [53123528] [8E4EEDF8]
06 97,5 [EA7CE37A] [D6C49FFF]
07 98,4 [AC07896C] [47FDD490]
08 96,2 [9B0A6392] [BD61CB91]
09 95,2 [4B542A24] [526E5FBD]
10 96,8 [F0563661] [BE1F5E77]
11 95,1 [982EA689] [DC288D6B]
12 96,1 [A757770F] [6B8C12B8]
13 98,6 [28613544] [3ECCDE1D]
14 97,2 [6E766E61] [11FF7FC7]
15 100,0 [9D6438E6] [BC10D634]
16 99,8 [1E4FD7A3] [AF71F08F]
17 97,6 [1BD2A0D3] [A2D0B9D3]
18 96,6 [3F9767D9] [01E3C0E4]
19 96,3 [05530160] [041E61DD]
20 95,2 [D279F162] [997DC90D]


VA - Absolute Dance 15 (1997)

All thanks go to the original releaser

Absolute Dance in my Blog

Download VA - Absolute Dance 15 (1997):