Subcategories

Abyssic - High the Memory (2019)

Posted By: gribovar
Abyssic - High the Memory (2019)

Abyssic - High the Memory (2019)
EAC Rip | FLAC (image+.cue+log) - 520 MB | MP3 CBR 320 kbps (LAME 3.93) - 182 MB | Covers - 36 MB
Genre: Funeral Doom/Death Metal | RAR 3% Rec. | Label: Osmose Productions (OPCD359)

80 minutes of epic orchestral doom/ death metal from musicians known from such acts as Susperia, Dimmu Borgir, Sirenia and Funeral. Abyssic convey sombre funeral doom draped in Norwegian black metal majesty and sophisticated 70's progressive rock. Low-tuned sinister riffs and discerning orchestration for fans of Septic Flesh, My Dying Bride and Shape Of Despair.
Tracklist:
01. Adornation
02. High the Memory
03. Transition Consent
04. Where My Pain Lies
05. Dreams Become Flesh

Total time: 01:17:20

Exact Audio Copy V1.3 from 2. September 2016

EAC extraction logfile from 23. March 2019, 18:24

Abyssic / High the Memory

Used drive : HP DVD Writer 1170d Adapter: 1 ID: 1

Read mode : Secure
Utilize accurate stream : Yes
Defeat audio cache : Yes
Make use of C2 pointers : No

Read offset correction : 6
Overread into Lead-In and Lead-Out : No
Fill up missing offset samples with silence : Yes
Delete leading and trailing silent blocks : No
Null samples used in CRC calculations : Yes
Used interface : Native Win32 interface for Win NT & 2000

Used output format : User Defined Encoder
Selected bitrate : 1024 kBit/s
Quality : High
Add ID3 tag : No
Command line compressor : C:\Program Files (x86)\Exact Audio Copy\Flac\flac.exe
Additional command line options : -V -8 -T "Date=%year%" -T "Genre=%genre%" %source%


TOC of the extracted CD

Track | Start | Length | Start sector | End sector
––––––––––––––––––––––––––––-
1 | 0:00.00 | 8:11.63 | 0 | 36887
2 | 8:11.63 | 20:39.03 | 36888 | 129815
3 | 28:50.66 | 12:38.48 | 129816 | 186713
4 | 41:29.39 | 20:37.59 | 186714 | 279547
5 | 62:07.23 | 15:12.30 | 279548 | 347977


Range status and errors

Selected range

Filename C:\EAC\ungern666\Abyssic - High the Memory.wav

Peak level 98.4 %
Extraction speed 5.0 X
Range quality 99.9 %
Test CRC 8FA1690E
Copy CRC 8FA1690E
Copy OK

No errors occurred


AccurateRip summary

Track 1 not present in database
Track 2 not present in database
Track 3 not present in database
Track 4 not present in database
Track 5 not present in database

None of the tracks are present in the AccurateRip database

End of status report

–– CUETools DB Plugin V2.1.6

[CTDB TOCID: cV7w.KH49qDhBdvLALXZCND9a9o-] found
Submit result: cV7w.KH49qDhBdvLALXZCND9a9o- has been confirmed
Track | CTDB Status
1 | (1/1) Accurately ripped
2 | (1/1) Accurately ripped
3 | (1/1) Accurately ripped
4 | (1/1) Accurately ripped
5 | (1/1) Accurately ripped


==== Log checksum 0A69F551A7FE9212F77D47A8B57A1F4E4F1BA34C700D1632944553C34BBB40D9 ====

[CUETools log; Date: 24.03.2019 14:42:36; Version: 2.1.4]
[CTDB TOCID: cV7w.KH49qDhBdvLALXZCND9a9o-] found.
Track | CTDB Status
1 | (2/2) Accurately ripped
2 | (2/2) Accurately ripped
3 | (2/2) Accurately ripped
4 | (2/2) Accurately ripped
5 | (2/2) Accurately ripped
[AccurateRip ID: 000ef7d0-0047a689-44121f05] disk not present in database.

Track Peak [ CRC32 ] [W/O NULL] [ LOG ]
– 98,4 [8FA1690E] [1B0D9F1F] CRC32
01 98,4 [C695A452] [1E15C1FE]
02 98,4 [A6F98904] [17842AB1]
03 98,4 [4E31680F] [FAABC6D6]
04 98,4 [2CE3E603] [C5752F39]
05 98,4 [19E26D2A] [6D4A3498]

Thanks to ungern666