Subcategories

Accept - Playlist: The Very Best Of Accept (2013)

Posted By: v3122
Accept - Playlist: The Very Best Of Accept (2013)

Accept - Playlist: The Very Best Of Accept (2013)
EAC | Flac(Image) + Cue + Log & MP3 CBR 320Kbps
Epic / Legacy, 88691954072 | ~ 474 or 153 Mb | Artwork(jpg) -> 7.70 Mb
Heavy Metal

This 2013 collection from venerable, German metal outfit Accept, led by the inimitable Udo Dirkschneider begins, appropriately, with their biggest hit, 1984's "Balls to the Wall," a true heavy metal anthem. Despite having an impressive track record of material that extends well into the 21st century, the remaining tracks on Playlist: The Very Best of Accept are all culled from the group's golden age, with highlights coming from live staples like "Fast as a Shark," "London Leatherboys," "Metal Heart," and "Restless and Wild."

by James Christopher Monger, allmusic
Accept - Playlist: The Very Best Of Accept (2013):

Accept - Playlist: The Very Best Of Accept (2013)

Tracklist:

01. Balls To The Wall (5:44)
02. Fast As A Shark (3:50)
03. Restless And Wild (4:13)
04. Head Over Heels (4:26)
05. Neon Nights (6:04)
06. Princess Of The Dawn (6:17)
07. Love Child (3:36)
08. London Leatherboys (3:58)
09. Winterdreams (4:51)
10. Midnight Mover (3:08)
11. T.V. War (3:28)
12. Russian Roulette (5:24)
13. Metal Heart (5:24)
14. Screaming For A Love-Bite [Live Version] (4:27)

Exact Audio Copy V1.0 beta 4 from 7. December 2014

EAC extraction logfile from 17. January 2015, 17:09

Accept / Playlist: The Very Best Of Accept

Used drive : Optiarc DVD RW AD-7203A Adapter: 1 ID: 0

Read mode : Secure
Utilize accurate stream : Yes
Defeat audio cache : Yes
Make use of C2 pointers : No

Read offset correction : 48
Overread into Lead-In and Lead-Out : No
Fill up missing offset samples with silence : Yes
Delete leading and trailing silent blocks : No
Null samples used in CRC calculations : Yes
Used interface : Native Win32 interface for Win NT & 2000

Used output format : User Defined Encoder
Selected bitrate : 128 kBit/s
Quality : High
Add ID3 tag : No
Command line compressor : C:\Program Files\Exact Audio Copy\Flac\flac.exe
Additional command line options : -V -8 -T "Date=%year%" -T "Genre=%genre%" %source%


TOC of the extracted CD

Track | Start | Length | Start sector | End sector
––––––––––––––––––––––––––––-
1 | 0:00.00 | 5:44.32 | 0 | 25831
2 | 5:44.32 | 3:49.71 | 25832 | 43077
3 | 9:34.28 | 4:13.10 | 43078 | 62062
4 | 13:47.38 | 4:25.72 | 62063 | 82009
5 | 18:13.35 | 6:03.44 | 82010 | 109278
6 | 24:17.04 | 6:16.62 | 109279 | 137540
7 | 30:33.66 | 3:35.58 | 137541 | 153723
8 | 34:09.49 | 3:58.19 | 153724 | 171592
9 | 38:07.68 | 4:51.06 | 171593 | 193423
10 | 42:58.74 | 3:08.06 | 193424 | 207529
11 | 46:07.05 | 3:27.71 | 207530 | 223125
12 | 49:35.01 | 5:23.50 | 223126 | 247400
13 | 54:58.51 | 5:24.18 | 247401 | 271718
14 | 60:22.69 | 4:27.35 | 271719 | 291778


Range status and errors

Selected range

Filename G:\Music\My Rips\s296\Accept - 2013 - The Very Best Of Accept (Compilation) - by s296\Accept - Playlist- The Very Best Of Accept.wav

Peak level 97.7 %
Extraction speed 4.0 X
Range quality 99.9 %
Test CRC 840DD362
Copy CRC 840DD362
Copy OK

No errors occurred


AccurateRip summary

Track 1 not present in database
Track 2 not present in database
Track 3 not present in database
Track 4 not present in database
Track 5 not present in database
Track 6 not present in database
Track 7 not present in database
Track 8 not present in database
Track 9 not present in database
Track 10 not present in database
Track 11 not present in database
Track 12 not present in database
Track 13 not present in database
Track 14 not present in database

None of the tracks are present in the AccurateRip database

End of status report

–– CUETools DB Plugin V2.1.4

[CTDB TOCID: sN7Ty7tirt1Ahh7RhaVg8vhg_rE-] found
Submit result: sN7Ty7tirt1Ahh7RhaVg8vhg_rE- has been confirmed
Track | CTDB Status
1 | (2/2) Accurately ripped
2 | (2/2) Accurately ripped
3 | (2/2) Accurately ripped
4 | (2/2) Accurately ripped
5 | (2/2) Accurately ripped
6 | (2/2) Accurately ripped
7 | (2/2) Accurately ripped
8 | (2/2) Accurately ripped
9 | (2/2) Accurately ripped
10 | (2/2) Accurately ripped
11 | (2/2) Accurately ripped
12 | (2/2) Accurately ripped
13 | (2/2) Accurately ripped
14 | (2/2) Accurately ripped


==== Log checksum 63A986AABD54BF7202A96F599C447168E88FC7FF6256A462DDADB45C92E5FBB5 ====


[CUETools log; Date: 10.06.2019 10:46:48; Version: 2.1.4]
[AccurateRip ID: 0021e043-0166f009-d90f320e] found.
Track [ CRC | V2 ] Status
01 [abd70a30|9b260b79] (0+1/1) Accurately ripped
02 [1c21e8d0|f9dfcbc6] (0+1/1) Accurately ripped
03 [e30ee4d8|5a1121f1] (0+1/1) Accurately ripped
04 [d905d9d7|c4ddbe77] (0+1/1) Accurately ripped
05 [2b947ee0|7f63b723] (0+1/1) Accurately ripped
06 [853458fd|faaec764] (0+0/1) No match
07 [19b07a99|97907369] (0+1/1) Accurately ripped
08 [9aa0599b|92f895cc] (0+1/1) Accurately ripped
09 [2ea75166|5683ac21] (0+1/1) Accurately ripped
10 [63576d9e|bd060d88] (0+1/1) Accurately ripped
11 [c19b1cf5|5d860ba9] (0+1/1) Accurately ripped
12 [bcf178a9|28cbf38d] (0+1/1) Accurately ripped
13 [fc4d5dd4|2c59880b] (0+1/1) Accurately ripped
14 [a550a8f4|ea5ff733] (0+1/1) Accurately ripped

Track Peak [ CRC32 ] [W/O NULL] [ LOG ]
– 97,7 [0F1B0D58] [E7C43ACB] [840DD362]
01 97,6 [6FBCEA41] [3EEA2371]
02 96,6 [E2B2B38B] [F26E2E08]
03 96,6 [D6B0DE00] [13810B96]
04 97,6 [7FF16C8C] [C607E359]
05 97,7 [19866CDE] [8DC13796]
06 96,6 [C105262D] [0BED3DD2]
07 97,6 [4A55FB82] [1EE1F3C5]
08 97,6 [4FE7DAD9] [D3195C94]
09 97,7 [A1C30A20] [52EFE288]
10 87,4 [CD0652E1] [5ADD15B5]
11 86,7 [FD918331] [A7F208F8]
12 87,8 [C6711E41] [02ECE801]
13 97,7 [6F582094] [81D70860]
14 97,7 [978BF0CD] [961F7B43]


Accept - Playlist: The Very Best Of Accept (2013)

All thanks go to the original releaser

Accept in my Blog

Download Accept - Playlist: The Very Best Of Accept (2013):