Subcategories

Accept - The Rise Of Chaos (2017) {Limited Edition}

Posted By: popsakov
Accept - The Rise Of Chaos (2017) {Limited Edition}

Accept - The Rise Of Chaos (2017) {Limited Edition}
EAC Rip | FLAC (Img) + Cue + Log ~ 364 Mb | Full Scans (JPG, 600 dpi) ~ 74 Mb | RAR 5% Recovery
Heavy Metal | Nuclear Blast #NB 4012-0 / 27361 40120

ACCEPT speed around the corner with their new album 'The Rise Of Chaos', which will cement their status as genre leaders once again. Guitarist Wolf Hoffmann comments on the album title, "'The Rise Of Chaos' is something I have been thinking about often. It describes a condition which is slowly spreading around the world. With the stage setup on our latest European tour, we wanted to portray rather dystopian and destroyed scenery. If you now take a look at our new cover, it's the same imagery." ACCEPT continue along the path they started with their three previous records, which is why the band has recorded their 4th studio album since 2010 once again with Andy Sneap (Machine Head, Megadeth). The galloping drums, lightning guitars and trademark choir of album opener 'Die By The Sword' instantly prove they're still the top dog when it comes to top-notch Teutonic metal. Second track 'Hole In The Head' leaves no time to breathe, before the title track kick-starts and tries to pummel its way through the listener's ears. After consuming the upcoming 'Koolaid' shake, other highlights include the thoughtful 'Worlds Colliding' and the frenetic 'Carry The Weight'. After 45 minutes, the closer, 'Race To Extinction', lets the record fade out fittingly. The songs from 'The Rise Of Chaos' will be performed for the very first time at Wacken Open Air 2017's 'Night To Remember'. The last and concluding third part of this once in a lifetime evening will be fulfilled with a classic ACCEPT set alongside the orchestra. Wolf Hoffmann states, " We want to present something that ACCEPT has never done before, we hope we can give something really special to the fans."
Accept - The Rise Of Chaos (2017) {Limited Edition}


***************

Accept - The Rise Of Chaos (2017) {Limited Edition}

Track List:

01. Die By The Sword [5:01]
02. Hole In The Head [4:02]
03. The Rise Of Chaos [5:17]
04. Koolaid [5:00]
05. No Regrets [4:21]
06. Analog Man [4:11]
07. What's Done Is Done [4:09]
08. Worlds Colliding [4:31]
09. Carry The Weight [4:35]
10. Race To Extinction [5:25]

Personnel:
Mark Tornillo - Vocals
Wolf Hoffmann - Guitars
Uwe Lulis - Guitars
Peter Baltes - Bass
Christopher Williams - Drums

Exact Audio Copy V1.3 from 2. September 2016

EAC extraction logfile from 3. August 2017, 17:30

Accept / The Rise Of Chaos

Used drive : ATAPI iHAS122 W Adapter: 2 ID: 0

Read mode : Secure
Utilize accurate stream : Yes
Defeat audio cache : Yes
Make use of C2 pointers : No

Read offset correction : 48
Overread into Lead-In and Lead-Out : No
Fill up missing offset samples with silence : Yes
Delete leading and trailing silent blocks : No
Null samples used in CRC calculations : Yes
Used interface : Installed external ASPI interface

Used output format : User Defined Encoder
Selected bitrate : 1024 kBit/s
Quality : High
Add ID3 tag : No
Command line compressor : C:\Program Files\FLAC\flac.exe
Additional command line options : -V -8 -T "Date=%year%" -T "Genre=%genre%" -T"COMMENT=Ripped by Ilijan - ilko" -8 -V %source%


TOC of the extracted CD

Track | Start | Length | Start sector | End sector
––––––––––––––––––––––––––––-
1 | 0:00.00 | 5:00.72 | 0 | 22571
2 | 5:00.72 | 4:01.39 | 22572 | 40685
3 | 9:02.36 | 5:16.71 | 40686 | 64456
4 | 14:19.32 | 4:59.52 | 64457 | 86933
5 | 19:19.09 | 4:20.65 | 86934 | 106498
6 | 23:39.74 | 4:11.37 | 106499 | 125360
7 | 27:51.36 | 4:09.35 | 125361 | 144070
8 | 32:00.71 | 4:30.39 | 144071 | 164359
9 | 36:31.35 | 4:34.59 | 164360 | 184968
10 | 41:06.19 | 5:24.72 | 184969 | 209340


Range status and errors

Selected range

Filename D:\ilko\Accept - The Rise Of Chaos.wav

Peak level 100.0 %
Extraction speed 4.1 X
Range quality 100.0 %
Test CRC 9730BA0E
Copy CRC 9730BA0E
Copy OK

No errors occurred


AccurateRip summary

Track 1 not present in database
Track 2 not present in database
Track 3 not present in database
Track 4 not present in database
Track 5 not present in database
Track 6 not present in database
Track 7 not present in database
Track 8 not present in database
Track 9 not present in database
Track 10 not present in database

None of the tracks are present in the AccurateRip database

End of status report

–– CUETools DB Plugin V2.1.6

[CTDB TOCID: x171UwgvqLt_1qfOk5enLfcTU1M-] disk not present in database
Submit result: x171UwgvqLt_1qfOk5enLfcTU1M- has been uploaded


==== Log checksum DF0E0326B81A5C4FF8E77F646933EE3FF8035AF6D6A6AD1528BE17A62AE46FB1 ====

foobar2000 1.2.6 / Dynamic Range Meter 1.1.1
log date: 2017-08-03 19:24:46

––––––––––––––––––––––––––––––––––––––––
Analyzed: Accept / The Rise Of Chaos
––––––––––––––––––––––––––––––––––––––––

DR Peak RMS Duration Track
––––––––––––––––––––––––––––––––––––––––
DR6 0.00 dB -7.27 dB 5:01 01-Die By The Sword
DR6 0.00 dB -7.47 dB 4:02 02-Hole In The Head
DR6 0.00 dB -6.78 dB 5:17 03-The Rise Of Chaos
DR6 0.00 dB -8.26 dB 5:00 04-Koolaid
DR6 0.00 dB -6.82 dB 4:21 05-No Regrets
DR6 0.00 dB -7.78 dB 4:11 06-Analog Man
DR6 0.00 dB -7.28 dB 4:09 07-What's Done Is Done
DR6 0.00 dB -6.90 dB 4:31 08-Worlds Colliding
DR6 0.00 dB -7.04 dB 4:35 09-Carry The Weight
DR6 0.00 dB -7.35 dB 5:25 10-Race To Extinction
––––––––––––––––––––––––––––––––––––––––

Number of tracks: 10
Official DR value: DR6

Samplerate: 44100 Hz
Channels: 2
Bits per sample: 16
Bitrate: 1043 kbps
Codec: FLAC
================================================================================

[CUETools log; Date: 03.08.2017 19:24:49; Version: 2.1.5]
[CTDB TOCID: x171UwgvqLt_1qfOk5enLfcTU1M-] found.
Track | CTDB Status
1 | (2/2) Accurately ripped
2 | (2/2) Accurately ripped
3 | (2/2) Accurately ripped
4 | (2/2) Accurately ripped
5 | (2/2) Accurately ripped
6 | (2/2) Accurately ripped
7 | (2/2) Accurately ripped
8 | (2/2) Accurately ripped
9 | (2/2) Accurately ripped
10 | (2/2) Accurately ripped
[AccurateRip ID: 00118942-008bc717-760ae70a] disk not present in database.

Track Peak [ CRC32 ] [W/O NULL] [ LOG ]
– 100,0 [9730BA0E] [B512E6BF] CRC32
01 100,0 [FABDDC6F] [51913378]
02 100,0 [FB4A4F47] [28633165]
03 100,0 [1992C295] [496CB2C6]
04 100,0 [C152ABC8] [B69D9BC3]
05 100,0 [07AADA28] [F9E4F9F8]
06 100,0 [A0D1CFBF] [44A3B0F4]
07 100,0 [54151CB8] [3F20E151]
08 100,0 [CE8FD5F6] [A78FADBD]
09 100,0 [68AC43DD] [26C72DAA]
10 100,0 [899B9D8F] [75556042]

Accept - The Rise Of Chaos (2017) {Limited Edition}

All thanks go to ilко

>>> Accept in my Blog <<<

Download from icerbox.com: