Subcategories

Ad Corda - Tomaso Albinoni: Sonate da Chiesa Op. 4 (2011)

Posted By: Designol
Ad Corda - Tomaso Albinoni: Sonate da Chiesa Op. 4 (2011)

Ad Corda - Tomaso Albinoni: Sonate da Chiesa Op. 4 (2011)
EAC | FLAC | Image (Cue&Log) ~ 359 Mb | Mp3 (CBR320) ~ 164 Mb | Scans included
Classical, Baroque | Label: Brilliant Classics | # 94189 | Time: 01:07:52

The Venetian late Baroque composer Tomaso Albinoni had a long career in the theatre, and his prolific output included fifty-three operas. However, these stage works were lost and are now largely forgotten, and he is remembered chiefly for his concertos. The Sonate da Chiesa or ‘church’ sonatas, were four-movement concertos and fairly solemn in nature as they were written to be performed in church. However, Albinoni’s Sonate da Chiesa are less traditional, incorporating a range of dance forms, and displaying his elegant style and considerable melodic talents to great effect. The slow movements, such as the Adagio of Op.4 No.6 are particularly appealing. Albinoni’s lyrical ‘church sonatas’ are not what they seem though.

There are two works by the composer which are assigned ‘Op.4’: the Cantate a voce sola, and the Sonate da Chiesa. The latter, or ‘second’ Op.4, were not originally put together by Albinoni himself but collected under that opus number, by the French publisher Éstienne Roger, who borrowed it from the Cantate a voce sola, which he didn’t intend to republish. The Sonate da Chiesa was widely circulated in Europe, and achieved far greater success than the Cantate a voce sola. However, the commercially-minded Roger had a growing number of customers, and needed to keep the flow of new publications going at low cost. This led him to put together unauthorised collections, including this set of Sonate da Chiesa. In fact it contained inauthentic material, possibly by other composers. The authorship of the third sonata in particular is debated by music scholars. Albinoni’s Sonate da Chiesa are performed on this recording by Baroque expert Luca Scandali (organ and harpsichord) and early music specialists Alessandro Ciccolini (violin), Alberto Guerrero (cello), Maurizio Piantelli (theorbo), Miguel Rincón (archlute) and Francesco Baroni (harpsichord).

Ad Corda - Tomaso Albinoni: Sonate da Chiesa Op. 4 (2011)



Ad Corda - Tomaso Albinoni: Sonate da Chiesa Op. 4 (2011)


Recording: 2–4 December 2010, Church of St Agostino & Auditorium –
Centro Culturale ‘F. Scarfiotti’, Potenza Picena

Tracklist:

Sonata No.4 in G minor
01. I. Adagio (2:48)
02. II. Allegro (1:23)
03. III. Adagio (3:15)
04. IV. Allegro (1:32)

Sonata No.2 in E minor
05. I. Adagio (4:41)
06. II. Allegro (3:21)
07. III. Largo (1:46)
08. IV. Allegro (2:16)

Sonata No.3 in F major
09. I. Largo (2:03)
10. II. Allegro (2:02)
11. III. Adagio (3:16)
12. IV. Giga (1:54)

Sonata No.5 in G minor
13. I. Adagio (4:57)
14. II. Allegro (3:57)
15. III. Adagio (4:03)
16. IV. Presto (2:48)

Sonata No.6 in B minor
17. I. Largo (2:32)
18. II. Allegro (1:54)
19. III. Adagio (2:47)
20. IV. Allegro (1:35)

Sonata No.1 in D minor
21. I. Adagio (4:25)
22. II. Allegro (3:34)
23. III. Largo (1:55)
24. IV. Allegro (3:12)


Exact Audio Copy V1.1 from 23. June 2015

EAC extraction logfile from 23. August 2017, 2:49

Ad Corda / Albinoni - Sonate da Chiesa Op. 4

Used drive : HL-DT-STDVDRAM GP57EB40 Adapter: 1 ID: 1

Read mode : Secure
Utilize accurate stream : Yes
Defeat audio cache : Yes
Make use of C2 pointers : No

Read offset correction : 6
Overread into Lead-In and Lead-Out : No
Fill up missing offset samples with silence : Yes
Delete leading and trailing silent blocks : No
Null samples used in CRC calculations : Yes
Used interface : Native Win32 interface for Win NT & 2000

Used output format : User Defined Encoder
Selected bitrate : 1024 kBit/s
Quality : High
Add ID3 tag : No
Command line compressor : C:\Program Files (x86)\Exact Audio Copy\FLAC\FLAC.EXE
Additional command line options : -6 -V -T "ARTIST=%artist%" -T "TITLE=%title%" -T "ALBUM=%albumtitle%" -T "DATE=%year%" -T "TRACKNUMBER=%tracknr%" -T "GENRE=%genre%" -T "COMMENT=%comment%" -T "BAND=%albuminterpret%" -T "ALBUMARTIST=%albuminterpret%" -T "COMPOSER=%composer%" %haslyrics%–tag-from-file=LYRICS="%lyricsfile%"%haslyrics% -T "DISCNUMBER=%cdnumber%" -T "TOTALDISCS=%totalcds%" -T "TOTALTRACKS=%numtracks%" %hascover%–picture="%coverfile%"%hascover% %source% -o %dest%


TOC of the extracted CD

Track | Start | Length | Start sector | End sector
––––––––––––––––––––––––––––-
1 | 0:00.00 | 2:47.42 | 0 | 12566
2 | 2:47.42 | 1:22.60 | 12567 | 18776
3 | 4:10.27 | 3:14.53 | 18777 | 33379
4 | 7:25.05 | 1:31.44 | 33380 | 40248
5 | 8:56.49 | 4:41.14 | 40249 | 61337
6 | 13:37.63 | 3:20.61 | 61338 | 76398
7 | 16:58.49 | 1:46.01 | 76399 | 84349
8 | 18:44.50 | 2:15.55 | 84350 | 94529
9 | 21:00.30 | 2:02.72 | 94530 | 103751
10 | 23:03.27 | 2:01.39 | 103752 | 112865
11 | 25:04.66 | 3:16.28 | 112866 | 127593
12 | 28:21.19 | 1:54.37 | 127594 | 136180
13 | 30:15.56 | 4:56.59 | 136181 | 158439
14 | 35:12.40 | 3:56.44 | 158440 | 176183
15 | 39:09.09 | 4:02.43 | 176184 | 194376
16 | 43:11.52 | 2:47.50 | 194377 | 206951
17 | 45:59.27 | 2:32.09 | 206952 | 218360
18 | 48:31.36 | 1:53.69 | 218361 | 226904
19 | 50:25.30 | 2:46.42 | 226905 | 239396
20 | 53:11.72 | 1:34.38 | 239397 | 246484
21 | 54:46.35 | 4:24.41 | 246485 | 266325
22 | 59:11.01 | 3:34.20 | 266326 | 282395
23 | 62:45.21 | 1:55.32 | 282396 | 291052
24 | 64:40.53 | 3:11.42 | 291053 | 305419


Range status and errors

Selected range

Filename C:\EAC\Ad Corda - Albinoni - Sonate da Chiesa Op. 4.wav

Peak level 98.3 %
Extraction speed 2.1 X
Range quality 100.0 %
Test CRC F161B108
Copy CRC F161B108
Copy OK

No errors occurred


AccurateRip summary

Track 1 cannot be verified as accurate (confidence 9) [8FEA58FC], AccurateRip returned [1A78FF80] (AR v2)
Track 2 cannot be verified as accurate (confidence 9) [8E1E4F02], AccurateRip returned [60954224] (AR v2)
Track 3 cannot be verified as accurate (confidence 9) [BEC4D580], AccurateRip returned [49DD4CFF] (AR v2)
Track 4 cannot be verified as accurate (confidence 9) [BE59A113], AccurateRip returned [CEA99D07] (AR v2)
Track 5 cannot be verified as accurate (confidence 9) [C093B4DF], AccurateRip returned [9E7CED2E] (AR v2)
Track 6 cannot be verified as accurate (confidence 9) [CBC06615], AccurateRip returned [48C2CCA8] (AR v2)
Track 7 cannot be verified as accurate (confidence 9) [110FBC37], AccurateRip returned [E1B584C4] (AR v2)
Track 8 cannot be verified as accurate (confidence 9) [338BF74E], AccurateRip returned [07381DF1] (AR v2)
Track 9 cannot be verified as accurate (confidence 9) [E32CF38E], AccurateRip returned [B779D790] (AR v2)
Track 10 cannot be verified as accurate (confidence 9) [2DAEFEA5], AccurateRip returned [F8386929] (AR v2)
Track 11 cannot be verified as accurate (confidence 9) [92496C32], AccurateRip returned [18B26D9A] (AR v2)
Track 12 cannot be verified as accurate (confidence 9) [E740A3BB], AccurateRip returned [4F5E6096] (AR v2)
Track 13 cannot be verified as accurate (confidence 9) [6226EC92], AccurateRip returned [ABD09B2A] (AR v2)
Track 14 cannot be verified as accurate (confidence 9) [92D07F61], AccurateRip returned [23083521] (AR v2)
Track 15 cannot be verified as accurate (confidence 9) [E0D37F8B], AccurateRip returned [F8E9B1FD] (AR v2)
Track 16 cannot be verified as accurate (confidence 9) [E336FC35], AccurateRip returned [4918CCD7] (AR v2)
Track 17 cannot be verified as accurate (confidence 9) [4B597ABD], AccurateRip returned [6964B81C] (AR v2)
Track 18 cannot be verified as accurate (confidence 9) [9F83B416], AccurateRip returned [F0F90BBD] (AR v2)
Track 19 cannot be verified as accurate (confidence 9) [301F3A58], AccurateRip returned [5B0957C3] (AR v2)
Track 20 cannot be verified as accurate (confidence 9) [9F724562], AccurateRip returned [64663263] (AR v2)
Track 21 cannot be verified as accurate (confidence 9) [0B559809], AccurateRip returned [C2429A60] (AR v2)
Track 22 cannot be verified as accurate (confidence 9) [9CDF9A95], AccurateRip returned [329CBF1E] (AR v2)
Track 23 cannot be verified as accurate (confidence 9) [1DDAE8C3], AccurateRip returned [1CB71586] (AR v2)
Track 24 cannot be verified as accurate (confidence 9) [83CD921F], AccurateRip returned [01992F35] (AR v2)

No tracks could be verified as accurate
You may have a different pressing from the one(s) in the database

End of status report

–– CUETools DB Plugin V2.1.6

[CTDB TOCID: yhtwtoS1O3_qo1I_jvMUi44f08I-] found
Submit result: yhtwtoS1O3_qo1I_jvMUi44f08I- has been confirmed
Track | CTDB Status
1 | (14/14) Accurately ripped
2 | (14/14) Accurately ripped
3 | (14/14) Accurately ripped
4 | (14/14) Accurately ripped
5 | (14/14) Accurately ripped
6 | (14/14) Accurately ripped
7 | (14/14) Accurately ripped
8 | (14/14) Accurately ripped
9 | (14/14) Accurately ripped
10 | (14/14) Accurately ripped
11 | (14/14) Accurately ripped
12 | (14/14) Accurately ripped
13 | (14/14) Accurately ripped
14 | (14/14) Accurately ripped
15 | (14/14) Accurately ripped
16 | (14/14) Accurately ripped
17 | (14/14) Accurately ripped
18 | (14/14) Accurately ripped
19 | (14/14) Accurately ripped
20 | (14/14) Accurately ripped
21 | (14/14) Accurately ripped
22 | (14/14) Accurately ripped
23 | (14/14) Accurately ripped
24 | (14/14) Accurately ripped


==== Log checksum C01F85D3970B4F27055B7782CB1BAC357B53DD2B72A53E89EB966CB54517D2B4 ====

foobar2000 1.2 / Dynamic Range Meter 1.1.1
log date: 2017-09-13 23:22:59

––––––––––––––––––––––––––––––––––––––––
Analyzed: Ad Corda / Albinoni - Sonate da Chiesa Op. 4
––––––––––––––––––––––––––––––––––––––––

DR Peak RMS Duration Track
––––––––––––––––––––––––––––––––––––––––
DR10 -1.19 dB -16.79 dB 2:48 01-Sonata No.4 in g minor - I. Adagio
DR11 -2.49 dB -18.21 dB 1:23 02-Sonata No.4 in g minor - II. Allegro
DR12 -8.27 dB -24.81 dB 3:15 03-Sonata No.4 in g minor - III. Adagio
DR11 -2.85 dB -17.39 dB 1:32 04-Sonata No.4 in g minor - IV. Allegro
DR13 -4.86 dB -24.72 dB 4:41 05-Sonata No.2 in e minor - I. Adagio
DR14 -1.47 dB -18.96 dB 3:21 06-Sonata No.2 in e minor - II. Allegro
DR12 -2.96 dB -24.78 dB 1:46 07-Sonata No.2 in e minor - III. Largo
DR13 -0.15 dB -18.02 dB 2:16 08-Sonata No.2 in e minor - IV. Allegro
DR11 -8.38 dB -27.71 dB 2:03 09-Sonata No.3 in F major - I. Largo
DR13 -2.62 dB -19.85 dB 2:02 10-Sonata No.3 in F major - II. Allegro
DR10 -3.53 dB -18.50 dB 3:16 11-Sonata No.3 in F major - III. Adagio
DR14 -1.07 dB -21.29 dB 1:54 12-Sonata No.3 in F major - IV. Giga
DR12 -5.41 dB -21.22 dB 4:57 13-Sonata No.5 in g minor - I. Adagio
DR13 -1.21 dB -20.01 dB 3:57 14-Sonata No.5 in g minor - II. Allegro
DR14 -6.73 dB -27.88 dB 4:03 15-Sonata No.5 in g minor - III. Adagio
DR13 -4.75 dB -20.57 dB 2:48 16-Sonata No.5 in g minor - IV. Presto
DR12 -5.17 dB -24.63 dB 2:32 17-Sonata No.6 in b minor - I. Largo
DR13 -2.26 dB -20.79 dB 1:54 18-Sonata No.6 in b minor - II. Allegro
DR12 -7.27 dB -25.94 dB 2:47 19-Sonata No.6 in b minor - III. Adagio
DR14 -2.03 dB -20.96 dB 1:35 20-Sonata No.6 in b minor - IV. Allegro
DR10 -5.25 dB -18.82 dB 4:25 21-Sonata No.1 in d minor - I. Adagio
DR12 -1.02 dB -18.32 dB 3:34 22-Sonata No.1 in d minor - II. Allegro
DR11 -7.37 dB -26.40 dB 1:55 23-Sonata No.1 in d minor - III. Largo
DR12 -1.32 dB -18.89 dB 3:12 24-Sonata No.1 in d minor - IV. Allegro
––––––––––––––––––––––––––––––––––––––––

Number of tracks: 24
Official DR value: DR12

Samplerate: 44100 Hz
Channels: 2
Bits per sample: 16
Bitrate: 722 kbps
Codec: FLAC
================================================================================

Ad Corda - Tomaso Albinoni: Sonate da Chiesa Op. 4 (2011)

Ad Corda - Tomaso Albinoni: Sonate da Chiesa Op. 4 (2011)