Subcategories

Adam Viktora, Prague Baroque Soloists, Ensemble Inegal - Vivaldi in Bohemia (2009)

Posted By: ArlegZ
Adam Viktora, Prague Baroque Soloists, Ensemble Inegal - Vivaldi in Bohemia (2009)

Adam Viktora, Prague Baroque Soloists, Ensemble Inegal - Vivaldi in Bohemia (2009)
EAC | FLAC | Image (Cue & Log) ~ 358 Mb | Total time: 66:33 | Scans included
Classical | Label: Nibiru | # 0150-2211 | Recorded: 2008

Here are some prime works by Vivaldi that are not hot from a recording studio, but bring a new Nibiru title to our catalogue. They feature Ensemble Inegal and Prague Baroque Soloists conducted by Adam Viktora, who are legendary for their performances of music by Zelenka.
We know lots about him, but it is unclear if Antonio Vivaldi ever actually visited the Czech lands - Bohemia, Moravia and Silesia. Certainly his music was circulating there, as some of his operas appeared in Prague. The four extensive choral and vocal pieces on this disc - Dixit Dominus, RV 595, Laudate Pueri Dominum, RV 600, Magnificat, RV 610b (Czech Version), and Salve Regina, RV 617 - were in the music libraries of wealthy families or religious institutions. With soloists who include - Gabriela Eibenova, Hana Blazikova and Jaroslav Brezina - this disc gives a very Bohemian slant to Vivaldi's ever fascinating creations.

Performer:
Gabriela Eibenová, soprano
Hana Blažíková, soprano
Marta Fadljevičová, soprano
Lester Lardenoye, alto
Jaroslav Březina, tenor
Tomas Král, bass
Prague Baroque Soloists
Ensemble Inégal
Adam Viktora, conductor

Track List:
Dixit Dominus, RV595
01. Dixit Dominus
02. Donec ponam inimicos tuos
03. Virgam virtutis tuae
04. Tecum principium
05. Juravit Dominus
06. Dominus a dextris tuis
07. Judicabit in nationibus
08. Implebit ruinas
09. De torrente in via bibet
10. Gloria Patri
11. Sicut erat in principio
12. Et in saecula saeculorum, amen
Laudate Pueri Dominum, RV 600
13. Laudate pueri Dominum
14. Sit nomen Domini
15. A solis ortu usque ad occasum
16. Excelsus super omnes gentes
17. Quis sicut Dominus
18. Suscitans a terra inopem
19. Ut collocet eum
20. Gloria Patri
21. Laudate pueri Dominum, Sicut erat in principio
22. Amen
Magnificat, RV 610b (Czech Version)
23. Magnificat
24. Et exultavit
25. Et misericordia
26. Fecit potentiam
27. Esurientes
28. Suscepit Israel
29. Sicut locutus est
30. Gloria Patri
Salve Regina, RV 617
31. Salve Regina
32. Ad te clamamus
33. Eia ergo, advocata nostra
34. Et Jesum benedictum


Exact Audio Copy V1.3 from 2. September 2016

EAC extraction logfile from 15. February 2020, 15:58

Adam Viktora / Vivaldi in Bohemia

Used drive : HL-DT-STBD-RE WH16NS40 Adapter: 1 ID: 0

Read mode : Secure
Utilize accurate stream : Yes
Defeat audio cache : Yes
Make use of C2 pointers : No

Read offset correction : 6
Overread into Lead-In and Lead-Out : No
Fill up missing offset samples with silence : Yes
Delete leading and trailing silent blocks : No
Null samples used in CRC calculations : Yes
Used interface : Native Win32 interface for Win NT & 2000

Used output format : User Defined Encoder
Selected bitrate : 1024 kBit/s
Quality : High
Add ID3 tag : No
Command line compressor : C:\Program Files (x86)\Exact Audio Copy\FLAC\FLAC.EXE
Additional command line options : -6 -V -T "ARTIST=%artist%" -T "TITLE=%title%" -T "ALBUM=%albumtitle%" -T "DATE=%year%" -T "TRACKNUMBER=%tracknr%" -T "GENRE=%genre%" -T "COMMENT=%comment%" -T "BAND=%albuminterpret%" -T "ALBUMARTIST=%albuminterpret%" -T "COMPOSER=%composer%" %haslyrics%–tag-from-file=LYRICS="%lyricsfile%"%haslyrics% -T "DISCNUMBER=%cdnumber%" -T "TOTALDISCS=%totalcds%" -T "TOTALTRACKS=%numtracks%" %hascover%–picture="%coverfile%"%hascover% %source% -o %dest%


TOC of the extracted CD

Track | Start | Length | Start sector | End sector
––––––––––––––––––––––––––––-
1 | 0:00.00 | 2:00.17 | 0 | 9016
2 | 2:00.17 | 2:24.01 | 9017 | 19817
3 | 4:24.18 | 2:05.69 | 19818 | 29261
4 | 6:30.12 | 1:59.43 | 29262 | 38229
5 | 8:29.55 | 1:24.55 | 38230 | 44584
6 | 9:54.35 | 1:36.31 | 44585 | 51815
7 | 11:30.66 | 1:48.14 | 51816 | 59929
8 | 13:19.05 | 1:17.37 | 59930 | 65741
9 | 14:36.42 | 2:59.49 | 65742 | 79215
10 | 17:36.16 | 2:04.03 | 79216 | 88518
11 | 19:40.19 | 0:48.40 | 88519 | 92158
12 | 20:28.59 | 2:40.34 | 92159 | 104192
13 | 23:09.18 | 1:51.40 | 104193 | 112557
14 | 25:00.58 | 2:46.69 | 112558 | 125076
15 | 27:47.52 | 1:46.71 | 125077 | 133097
16 | 29:34.48 | 2:46.66 | 133098 | 145613
17 | 32:21.39 | 2:14.03 | 145614 | 155666
18 | 34:35.42 | 1:19.23 | 155667 | 161614
19 | 35:54.65 | 1:45.03 | 161615 | 169492
20 | 37:39.68 | 3:39.37 | 169493 | 185954
21 | 41:19.30 | 1:36.62 | 185955 | 193216
22 | 42:56.17 | 1:43.02 | 193217 | 200943
23 | 44:39.19 | 0:57.24 | 200944 | 205242
24 | 45:36.43 | 2:01.19 | 205243 | 214336
25 | 47:37.62 | 3:18.36 | 214337 | 229222
26 | 50:56.23 | 1:14.62 | 229223 | 234834
27 | 52:11.10 | 1:51.16 | 234835 | 243175
28 | 54:02.26 | 0:44.38 | 243176 | 246513
29 | 54:46.64 | 1:18.53 | 246514 | 252416
30 | 56:05.42 | 1:48.46 | 252417 | 260562
31 | 57:54.13 | 2:36.45 | 260563 | 272307
32 | 60:30.58 | 1:51.22 | 272308 | 280654
33 | 62:22.05 | 1:30.73 | 280655 | 287477
34 | 63:53.03 | 2:38.29 | 287478 | 299356


Range status and errors

Selected range

Filename C:\Users\Grant\Desktop\Adam Viktora - Vivaldi in Bohemia.wav

Peak level 96.7 %
Extraction speed 8.1 X
Range quality 100.0 %
Test CRC 68E2C451
Copy CRC 68E2C451
Copy OK

No errors occurred


AccurateRip summary

Track 1 accurately ripped (confidence 3) [60492D18] (AR v2)
Track 2 accurately ripped (confidence 3) [CA8073DE] (AR v2)
Track 3 accurately ripped (confidence 3) [1C28C33A] (AR v2)
Track 4 accurately ripped (confidence 3) [73E46FF1] (AR v2)
Track 5 accurately ripped (confidence 3) [3B63C184] (AR v2)
Track 6 accurately ripped (confidence 3) [D6FD24EE] (AR v2)
Track 7 accurately ripped (confidence 3) [6AAC3773] (AR v2)
Track 8 accurately ripped (confidence 2) [904B1B11] (AR v2)
Track 9 accurately ripped (confidence 3) [2DFDEDAA] (AR v2)
Track 10 accurately ripped (confidence 3) [113F293A] (AR v2)
Track 11 accurately ripped (confidence 3) [1DB41340] (AR v2)
Track 12 accurately ripped (confidence 3) [B6418C4B] (AR v2)
Track 13 accurately ripped (confidence 3) [AB78FEA0] (AR v2)
Track 14 accurately ripped (confidence 3) [1BD8F037] (AR v2)
Track 15 accurately ripped (confidence 3) [85FDD52C] (AR v2)
Track 16 accurately ripped (confidence 3) [B34713CE] (AR v2)
Track 17 accurately ripped (confidence 3) [EF522B70] (AR v2)
Track 18 accurately ripped (confidence 3) [066FD0BB] (AR v2)
Track 19 accurately ripped (confidence 3) [F6B7B857] (AR v2)
Track 20 accurately ripped (confidence 3) [A1C2DCC6] (AR v2)
Track 21 accurately ripped (confidence 3) [5F48F20C] (AR v2)
Track 22 accurately ripped (confidence 3) [41C97944] (AR v2)
Track 23 accurately ripped (confidence 3) [5C8827EC] (AR v2)
Track 24 accurately ripped (confidence 3) [C7108E0A] (AR v2)
Track 25 accurately ripped (confidence 3) [40B8E4D2] (AR v2)
Track 26 accurately ripped (confidence 3) [4BC7D3B5] (AR v2)
Track 27 accurately ripped (confidence 3) [038FDDB5] (AR v2)
Track 28 accurately ripped (confidence 3) [0B69630F] (AR v2)
Track 29 accurately ripped (confidence 3) [BF4427C9] (AR v2)
Track 30 accurately ripped (confidence 3) [01580020] (AR v2)
Track 31 accurately ripped (confidence 3) [71701DB8] (AR v2)
Track 32 accurately ripped (confidence 3) [52AD92C5] (AR v2)
Track 33 accurately ripped (confidence 3) [0C81B86B] (AR v2)
Track 34 accurately ripped (confidence 3) [93922DB4] (AR v2)

All tracks accurately ripped

End of status report

–– CUETools DB Plugin V2.1.6

[CTDB TOCID: 4pLCp4qIp8dgQcEm4HOppEzjWK8-] found
Submit result: 4pLCp4qIp8dgQcEm4HOppEzjWK8- has been confirmed
Track | CTDB Status
1 | (6/6) Accurately ripped
2 | (6/6) Accurately ripped
3 | (6/6) Accurately ripped
4 | (6/6) Accurately ripped
5 | (6/6) Accurately ripped
6 | (6/6) Accurately ripped
7 | (6/6) Accurately ripped
8 | (6/6) Accurately ripped
9 | (6/6) Accurately ripped
10 | (6/6) Accurately ripped
11 | (6/6) Accurately ripped
12 | (6/6) Accurately ripped
13 | (6/6) Accurately ripped
14 | (6/6) Accurately ripped
15 | (6/6) Accurately ripped
16 | (6/6) Accurately ripped
17 | (6/6) Accurately ripped
18 | (6/6) Accurately ripped
19 | (6/6) Accurately ripped
20 | (6/6) Accurately ripped
21 | (6/6) Accurately ripped
22 | (6/6) Accurately ripped
23 | (6/6) Accurately ripped
24 | (6/6) Accurately ripped
25 | (6/6) Accurately ripped
26 | (6/6) Accurately ripped
27 | (6/6) Accurately ripped
28 | (6/6) Accurately ripped
29 | (6/6) Accurately ripped
30 | (6/6) Accurately ripped
31 | (6/6) Accurately ripped
32 | (6/6) Accurately ripped
33 | (6/6) Accurately ripped
34 | (6/6) Accurately ripped


==== Log checksum 8FC80F2B45B159E270602BB65B7582A428A8B2CA5DD6B4053BC4EC73FC44B336 ====

Adam Viktora, Prague Baroque Soloists, Ensemble Inegal - Vivaldi in Bohemia (2009)

Thanks to the original releaser