Subcategories

Adriano Celentano - I Mali Del Secolo (1972) {1995, Reissue}

Posted By: popsakov
Adriano Celentano - I Mali Del Secolo (1972) {1995, Reissue}

Adriano Celentano - I Mali Del Secolo (1972) {1995, Reissue}
EAC Rip | FLAC (Img) + Cue + Log ~ 267 Mb | MP3 CBR320 ~ 98 Mb
Scans Included (JPG, 300 dpi) | RAR 5% Recovery
Pop, Chanson, Pop Rock, Rock & Roll | Clan Celentano / BMG #74321 31413 2

One of Italy's best-loved artists, Adriano Celentano has been equally successful in film and music. Whether singing Elvis Presley-inspired rock, as he did as a member of the Rock Boys in 1957, or romantic balladry, Celentano found a dedicated market for his music. Reaching the top of the Italian music charts with his debut single "Il Tuo Bacio e Come un Skirt" in 1959, he matched its success with the million-selling "24000 Baci (24,000 Kisses)" in 1961; "Il Ragazzo Della Via Gluck," which went on to be translated and re-recorded in 18 languages, in 1966; and Prisencolinensinainciusol in 1972.

Celentano's albums have been similarly embraced. His debut album, Non Mi Dir, reached the top position of Italy's charts in 1965. His album Soli spent 58 weeks on the charts in 1978-1979. Although he left music for nearly two decades to focus on his career as an actor, Celentano later recaptured the momentum of his early career. His comeback album, Mina + Celentano, was a major hit in 1998 while his second album, Francamente Me Ne Infischio, based on the television-variety show that he agreed to host in 1999, spent several weeks at the top of Italy's album charts. Esco di Rado – E Parlo Ancora Meno, the third album since Celentano returned to music, sold more than 600,000 copies before its release.

Celentano continued to balance his music career with his work in Italian cinema. As an actor, he made his theatrical debut in such movies as Dai, Johnny, Dai!, I Ragazzi del Jukebox, I Frenetici in 1959, and Fellini's classic La Dolce Vita in 1960. His subsequent screen appearances included roles in such films as The Sin, Rugantino, Give Me Five, Il Bisbetico Domato, and Segni Parsticolari: Bellissimo. Having made his debut as a producer and director with the 1974 film Yuppi Du, Celentano wen on to direct such films as L'atra Meta Del Cielo and Geppo Il Folle. His first long-term experience with television came in late 1987 when he agreed to host the variety show Fantastico 8.
~ Craig Harris, All Music

***************

Adriano Celentano - I Mali Del Secolo (1972) {1995, Reissue}

Adriano Celentano - I Mali Del Secolo (1972) {1995, Reissue}

Track List:

01. Ready Teddy [3:08]
02. L'Albero Di Trenta Piani [4:04]
03. Forse Eri Meglio Di Lei [5:27]
04. La Ballata Di Pinocchio [6:47]
05. Disse [4:24]
06. La Siringhetta [4:39]
07. L'ultimo Degli Uccelli [4:50]
08. Quel Signore Del Piano Di Sopra [5:21]

Exact Audio Copy V1.0 beta 3 from 29. August 2011

EAC extraction logfile from 18. April 2017, 6:32

Adriano Celentano / I Mali Del Secolo

Used drive : TSSTcorpCDDVDW SH-216DB Adapter: 0 ID: 0

Read mode : Secure
Utilize accurate stream : Yes
Defeat audio cache : Yes
Make use of C2 pointers : No

Read offset correction : 6
Overread into Lead-In and Lead-Out : No
Fill up missing offset samples with silence : Yes
Delete leading and trailing silent blocks : No
Null samples used in CRC calculations : Yes
Used interface : Native Win32 interface for Win NT & 2000

Used output format : User Defined Encoder
Selected bitrate : 1024 kBit/s
Quality : High
Add ID3 tag : No
Command line compressor : C:\Program Files (x86)\Exact Audio Copy\Flac\flac.exe
Additional command line options : -V -8 -T "Date=%year%" -T "Genre=%genre%" %source%


TOC of the extracted CD

Track | Start | Length | Start sector | End sector
––––––––––––––––––––––––––––-
1 | 0:00.33 | 3:07.50 | 33 | 14107
2 | 3:08.08 | 4:04.22 | 14108 | 32429
3 | 7:12.30 | 5:27.28 | 32430 | 56982
4 | 12:39.58 | 6:47.00 | 56983 | 87507
5 | 19:26.58 | 4:23.50 | 87508 | 107282
6 | 23:50.33 | 4:39.25 | 107283 | 128232
7 | 28:29.58 | 4:50.00 | 128233 | 149982
8 | 33:19.58 | 5:21.00 | 149983 | 174057


Range status and errors

Selected range

Filename L:\Private\My Audio Ripps\ CD - RIPS\Adriano Celentano - I Mali Del Secolo\Adriano Celentano - I Mali Del Secolo.wav

Peak level 100.0 %
Extraction speed 2.4 X
Range quality 100.0 %
Test CRC B8C3E401
Copy CRC B8C3E401
Copy OK

No errors occurred


AccurateRip summary

Track 1 not present in database
Track 2 not present in database
Track 3 not present in database
Track 4 not present in database
Track 5 not present in database
Track 6 not present in database
Track 7 not present in database
Track 8 not present in database

None of the tracks are present in the AccurateRip database

End of status report

==== Log checksum 0764C362D29B5F4F78D5A8D48361786A27854D3097DEB7F408B72721FC368C25 ====

foobar2000 1.2.6 / Dynamic Range Meter 1.1.1
log date: 2017-04-27 12:10:30

––––––––––––––––––––––––––––––––––––––––
Analyzed: Adriano Celentano / I Mali Del Secolo
––––––––––––––––––––––––––––––––––––––––

DR Peak RMS Duration Track
––––––––––––––––––––––––––––––––––––––––
DR9 -0.64 dB -12.32 dB 3:08 01-Ready Teddy
DR7 0.00 dB -9.49 dB 4:04 02-L'Albero Di Trenta Piani
DR8 0.00 dB -11.51 dB 5:27 03-Forse Eri Meglio Di Lei
DR9 0.00 dB -11.72 dB 6:47 04-La Ballata Di Pinocchio
DR8 0.00 dB -10.53 dB 4:24 05-Disse
DR9 -0.20 dB -11.70 dB 4:39 06-La Siringhetta
DR11 0.00 dB -13.17 dB 4:50 07-L'ultimo Degli Uccelli
DR11 0.00 dB -13.30 dB 5:21 08-Quel Signore Del Piano Di Sopra
––––––––––––––––––––––––––––––––––––––––

Number of tracks: 8
Official DR value: DR9

Samplerate: 44100 Hz
Channels: 2
Bits per sample: 16
Bitrate: 906 kbps
Codec: FLAC
================================================================================

CUETools log; Date: 27.04.2017 12:01:04; Version: 2.1.5]
Pregap length 00:00:33.
[CTDB TOCID: zcxUOD.Ns46cc._oEFxVtDA1mFc-] disk not present in database.
[AccurateRip ID: 000b741b-004dcce6-4c091008] disk not present in database.

Track Peak [ CRC32 ] [W/O NULL] [ LOG ]
– 100,0 [B8C3E401] [FAD1E78A] CRC32
01 92,8 [84B675C6] [C7294523]
02 100,0 [3A481B71] [418E7ABF]
03 100,0 [D01B7676] [AA50FA7F]
04 100,0 [D632703B] [92133757]
05 100,0 [54F9D907] [C45FCE7C]
06 97,7 [6BECAD7A] [7CFDCFEA]
07 100,0 [D1B98B48] [CAA7CFD6]
08 100,0 [26DE03BD] [5749F705]

Adriano Celentano - I Mali Del Secolo (1972) {1995, Reissue}

All thanks go to alexpika

>>> Adriano Celentano in my blog <<<