Subcategories

Adriano Celentano - Le Robe Che Ha Detto Adriano (1969) {1995, Reissue}

Posted By: popsakov
Adriano Celentano - Le Robe Che Ha Detto Adriano (1969) {1995, Reissue}

Adriano Celentano - Le Robe Che Ha Detto Adriano (1969) {1995, Reissue}
EAC Rip | FLAC (Img) + Cue + Log ~ 300 Mb | MP3 CBR320 ~ 119 Mb
Scans Included (JPG, 300 dpi) | RAR 5% Recovery
Pop, Chanson | Clan Celentano / BMG #74321 31415 2

One of Italy's best-loved artists, Adriano Celentano has been equally successful in film and music. Whether singing Elvis Presley-inspired rock, as he did as a member of the Rock Boys in 1957, or romantic balladry, Celentano found a dedicated market for his music. Reaching the top of the Italian music charts with his debut single "Il Tuo Bacio e Come un Skirt" in 1959, he matched its success with the million-selling "24000 Baci (24,000 Kisses)" in 1961; "Il Ragazzo Della Via Gluck," which went on to be translated and re-recorded in 18 languages, in 1966; and Prisencolinensinainciusol in 1972.

Celentano's albums have been similarly embraced. His debut album, Non Mi Dir, reached the top position of Italy's charts in 1965. His album Soli spent 58 weeks on the charts in 1978-1979. Although he left music for nearly two decades to focus on his career as an actor, Celentano later recaptured the momentum of his early career. His comeback album, Mina + Celentano, was a major hit in 1998 while his second album, Francamente Me Ne Infischio, based on the television-variety show that he agreed to host in 1999, spent several weeks at the top of Italy's album charts. Esco di Rado – E Parlo Ancora Meno, the third album since Celentano returned to music, sold more than 600,000 copies before its release.

Celentano continued to balance his music career with his work in Italian cinema. As an actor, he made his theatrical debut in such movies as Dai, Johnny, Dai!, I Ragazzi del Jukebox, I Frenetici in 1959, and Fellini's classic La Dolce Vita in 1960. His subsequent screen appearances included roles in such films as The Sin, Rugantino, Give Me Five, Il Bisbetico Domato, and Segni Parsticolari: Bellissimo. Having made his debut as a producer and director with the 1974 film Yuppi Du, Celentano wen on to direct such films as L'atra Meta Del Cielo and Geppo Il Folle. His first long-term experience with television came in late 1987 when he agreed to host the variety show Fantastico 8.
~ Craig Harris, All Music

***************

Adriano Celentano - Le Robe Che Ha Detto Adriano (1969) {1995, Reissue}

Adriano Celentano - Le Robe Che Ha Detto Adriano (1969) {1995, Reissue}

Track List:

01. Lirica d'Inverno [3:55]
02. Un Bimbo Sul Leone [3:38]
03. Chi Era Lui [2:49]
04. La Storia di Serafino [3:55]
05. Straordinariamente [3:52]
06. Il Ragazzo della Via Gluck [4:17]
07. Storia d'Amore [4:55]
08. Napoleone il Cow Boy e lo Zar [2:49]
09. Una Festa Sui Prati [3:18]
10. Mondo in Me 7a [6:10]
11. L'Uomo Nasce Nudo [4:59]
12. La Pelle [3:12]

Exact Audio Copy V1.0 beta 3 from 29. August 2011

EAC extraction logfile from 16. April 2017, 16:10

Adriano Celentano / Le Robe che ha detto Adriano

Used drive : TSSTcorpCDDVDW SH-216DB Adapter: 0 ID: 0

Read mode : Secure
Utilize accurate stream : Yes
Defeat audio cache : Yes
Make use of C2 pointers : No

Read offset correction : 6
Overread into Lead-In and Lead-Out : No
Fill up missing offset samples with silence : Yes
Delete leading and trailing silent blocks : No
Null samples used in CRC calculations : Yes
Used interface : Native Win32 interface for Win NT & 2000

Used output format : User Defined Encoder
Selected bitrate : 1024 kBit/s
Quality : High
Add ID3 tag : No
Command line compressor : C:\Program Files (x86)\Exact Audio Copy\Flac\flac.exe
Additional command line options : -V -8 -T "Date=%year%" -T "Genre=%genre%" %source%


TOC of the extracted CD

Track | Start | Length | Start sector | End sector
––––––––––––––––––––––––––––-
1 | 0:00.32 | 3:55.13 | 32 | 17669
2 | 3:55.45 | 3:37.62 | 17670 | 34006
3 | 7:33.32 | 2:49.13 | 34007 | 46694
4 | 10:22.45 | 3:55.00 | 46695 | 64319
5 | 14:17.45 | 3:52.12 | 64320 | 81731
6 | 18:09.57 | 4:16.48 | 81732 | 100979
7 | 22:26.30 | 4:55.15 | 100980 | 123119
8 | 27:21.45 | 2:48.60 | 123120 | 135779
9 | 30:10.30 | 3:18.15 | 135780 | 150644
10 | 33:28.45 | 6:10.25 | 150645 | 178419
11 | 39:38.70 | 4:58.50 | 178420 | 200819
12 | 44:37.45 | 3:12.25 | 200820 | 215244


Range status and errors

Selected range

Filename L:\Private\My Audio Ripps\ CD - RIPS\Adriano Celentano ‎– Le Robe Che Ha Detto Adriano\Adriano Celentano - Le Robe che ha detto Adriano.wav

Peak level 91.2 %
Extraction speed 2.4 X
Range quality 100.0 %
Test CRC F6F2965C
Copy CRC F6F2965C
Copy OK

No errors occurred


AccurateRip summary

Track 1 accurately ripped (confidence 1) [F3811A73] (AR v2)
Track 2 accurately ripped (confidence 1) [CD89AFC8] (AR v2)
Track 3 accurately ripped (confidence 1) [C983D58D] (AR v2)
Track 4 accurately ripped (confidence 1) [4DC2C290] (AR v2)
Track 5 accurately ripped (confidence 1) [C750A876] (AR v2)
Track 6 accurately ripped (confidence 1) [A7A2CD10] (AR v2)
Track 7 accurately ripped (confidence 1) [9A727124] (AR v2)
Track 8 accurately ripped (confidence 1) [3B5CB693] (AR v2)
Track 9 accurately ripped (confidence 1) [F0402519] (AR v2)
Track 10 accurately ripped (confidence 1) [69E5747C] (AR v2)
Track 11 accurately ripped (confidence 1) [FDE873DE] (AR v2)
Track 12 accurately ripped (confidence 1) [1ADEBB76] (AR v2)

All tracks accurately ripped

End of status report

==== Log checksum EF2CEDF8F1ADD335C04DA6F9197212F1FAEB31C0651032C139C0506EAA2A86A0 ====

foobar2000 1.2.6 / Dynamic Range Meter 1.1.1
log date: 2017-04-23 11:21:02

––––––––––––––––––––––––––––––––––––––––
Analyzed: Adriano Celentano / Le Robe che ha detto Adriano
––––––––––––––––––––––––––––––––––––––––

DR Peak RMS Duration Track
––––––––––––––––––––––––––––––––––––––––
DR8 -1.67 dB -11.50 dB 3:55 01-Lirica d'Inverno
DR8 -1.41 dB -10.67 dB 3:38 02-Un Bimbo Sul Leone
DR8 -1.91 dB -12.46 dB 2:49 03-Chi Era Lui
DR7 -0.79 dB -10.70 dB 3:55 04-La Storia di Serafino
DR8 -1.17 dB -11.57 dB 3:52 05-Straordinariamente
DR9 -1.12 dB -12.46 dB 4:17 06-Il Ragazzo della Via Gluck
DR8 -1.65 dB -12.20 dB 4:55 07-Storia d'Amore
DR9 -1.07 dB -12.52 dB 2:49 08-Napoleone il Cow Boy e lo Zar
DR8 -1.21 dB -11.69 dB 3:18 09-Una Festa Sui Prati
DR9 -0.98 dB -12.06 dB 6:10 10-Mondo in Me 7a
DR9 -0.87 dB -11.90 dB 4:59 11-L'Uomo Nasce Nudo
DR8 -1.31 dB -11.35 dB 3:12 12-La Pelle
––––––––––––––––––––––––––––––––––––––––

Number of tracks: 12
Official DR value: DR8

Samplerate: 44100 Hz
Channels: 2
Bits per sample: 16
Bitrate: 824 kbps
Codec: FLAC
================================================================================

[CUETools log; Date: 23.04.2017 11:21:02; Version: 2.1.5]
Pregap length 00:00:32.
[CTDB TOCID: 44KEKNgFdNLbbwrAXF3hHYuKB_g-] disk not present in database.
[AccurateRip ID: 0014975a-00c2333c-9b0b350c] found.
Track [ CRC | V2 ] Status
01 [84ca9e0f|f3811a73] (1+1/2) Accurately ripped
02 [bb06110a|cd89afc8] (1+1/2) Accurately ripped
03 [0d66d910|c983d58d] (1+1/2) Accurately ripped
04 [439f68a0|4dc2c290] (1+1/2) Accurately ripped
05 [afe7348c|c750a876] (1+1/2) Accurately ripped
06 [0ff13cbf|a7a2cd10] (1+1/2) Accurately ripped
07 [b437e15c|9a727124] (1+1/2) Accurately ripped
08 [7a3b3ff8|3b5cb693] (1+1/2) Accurately ripped
09 [af86fe1c|f0402519] (1+1/2) Accurately ripped
10 [83dc984c|69e5747c] (1+1/2) Accurately ripped
11 [a2e39b0b|fde873de] (1+1/2) Accurately ripped
12 [5522ba58|1adebb76] (1+1/2) Accurately ripped

Track Peak [ CRC32 ] [W/O NULL] [ LOG ]
– 91,2 [F6F2965C] [AC65FD0E] CRC32
01 82,5 [80954CA9] [0BBADA49]
02 85,0 [03669B4A] [E123620F]
03 80,2 [0AD5EC22] [5DF131F2]
04 91,2 [66FB49B9] [F027CF6C]
05 87,3 [01806B54] [0F1D0876]
06 87,8 [582EF5DE] [1F7D6FE6]
07 82,6 [76267769] [B9D00519]
08 88,4 [10FBE4E5] [3FD6EEF2]
09 86,9 [08A4017B] [4F6AED94]
10 89,3 [F68D95E0] [5F14AB52]
11 90,4 [300BAF14] [896C9537]
12 86,0 [C24E4142] [0F452623]

Adriano Celentano - Le Robe Che Ha Detto Adriano (1969) {1995, Reissue}

All thanks go to alexpika

> Adriano Celentano in my blog <