Subcategories

Al Di Meola - Live at the North Sea Jazz Festival, 1993 (2012)

Posted By: Designol
Al Di Meola - Live at the North Sea Jazz Festival, 1993 (2012)

Al Di Meola - Live at the North Sea Jazz Festival, 1993 (2012)
EAC | FLAC | Image (Cue&Log) ~ 262 Mb (incl 5%) | Mp3 (CBR320) ~ 110 Mb (incl 5%) | Scans included
Guitar Virtuoso, Fusion, Jazz-Rock | Label: The Store For Music | # SFM CD 251 | Time: 00:43:54

With a musical career spanning more than three decades, Al Di Meola continues to be one of the most influential and pioneering guitarists in the jazz-world-fusion category, mirroring the rich influences of flamenco, tango, Brazilian, African, and Middle Eastern music in his work. Recorded in 1993 at the North Sea Jazz Festival, an event widely acknowledged as the biggest and most prestigious festival in the world. Over the past 30 years, Al Di Meola has been recognized as a prolific composer, with over two dozen recordings to his name. The profundity of Di Meola s writing, along with the soulfulness and natural lyricism of his playing, have won him a large number of admirers worldwide.

Al Di Meola - Live at the North Sea Jazz Festival, 1993 (2012)



Recorded live at the North Sea Jazz Festival, Statenhal, The Hague, The Netherlands 1993.
Bonus track recorded 1990.

Tracklist:

01. Indigo (9:27)
02. Bordel 1900 (4:50)
03. Improvisation (3:02)
04. Tango Suite - Part I (8:11)
05. Tango Suite - Part II (8:12)
06. Mediterranean Sundance (5:49)

Bonus Track:
07. Summer Country Song [Guitar Solo] (4:22)


Exact Audio Copy V1.0 beta 3 from 29. August 2011

Отчёт EAC об извлечении, выполненном 26. сентября 2016, 14:28

Al Di Meola / Live at the North Sea Jazz Festival

Дисковод: ATAPI iHAS122 Adapter: 3 ID: 0

Режим чтения : Достоверность
Использование точного потока : Да
Отключение кэша аудио : Да
Использование указателей C2 : Нет

Коррекция смещения при чтении : 6
Способность читать области Lead-in и Lead-out : Нет
Заполнение пропущенных сэмплов тишиной : Да
Удаление блоков с тишиной в начале и конце : Нет
При вычислениях CRC использовались нулевые сэмплы : Да
Интерфейс : Встроенный Win32-интерфейс для Win NT/2000

Выходной формат : Пользовательский кодировщик
Выбранный битрейт : 128 kBit/s
Качество : Высокий
Добавление ID3-тега : Нет
Утилита сжатия : C:\Program Files (x86)\Exact Audio Copy\Flac\flac.exe
Дополнительные параметры : -V -8 -T "Date=%year%" -T "Genre=%genre%" %source%


TOC извлечённого CD

Трек | Старт | Длительность | Начальный сектор | Конечный сектор
––––––––––––––––––––––––––––––––––-
1 | 0:00.00 | 9:26.69 | 0 | 42518
2 | 9:26.69 | 4:50.25 | 42519 | 64293
3 | 14:17.19 | 3:01.70 | 64294 | 77938
4 | 17:19.14 | 8:11.22 | 77939 | 114785
5 | 25:30.36 | 8:11.50 | 114786 | 151660
6 | 33:42.11 | 5:49.27 | 151661 | 177862
7 | 39:31.38 | 4:22.58 | 177863 | 197570


Характеристики диапазона извлечения и сообщения об ошибках

Выбранный диапазон

Имя файла F:\Новая папка\Al Di Meola - Live at the North Sea Jazz Festival.wav

Пиковый уровень 98.2 %
Скорость извлечения 5.5 X
Качество диапазона 100.0 %
CRC теста AC6EB8E8
CRC копии AC6EB8E8
Копирование… OK

Ошибок не произошло


AccurateRip: сводка

Трек 1 : извлечено точно (доверие 3) [5BDEB4E2] (AR v2)
Трек 2 : извлечено точно (доверие 3) [7FA04580] (AR v2)
Трек 3 : извлечено точно (доверие 3) [AE220D31] (AR v2)
Трек 4 : извлечено точно (доверие 3) [932F097E] (AR v2)
Трек 5 : извлечено точно (доверие 3) [C798402A] (AR v2)
Трек 6 : извлечено точно (доверие 3) [344C7A02] (AR v2)
Трек 7 : извлечено точно (доверие 3) [4941355D] (AR v2)

Все треки извлечены точно

Конец отчёта

==== Контрольная сумма отчёта F6C5C673525977A5D24CF28C8B503599DEC1164DE530961072922C9FB1D4FC03 ====

foobar2000 1.2 / Dynamic Range Meter 1.1.1
log date: 2016-11-11 16:59:56

––––––––––––––––––––––––––––––––––––––––
Analyzed: Al Di Meola / Live at the North Sea Jazz Festival
––––––––––––––––––––––––––––––––––––––––

DR Peak RMS Duration Track
––––––––––––––––––––––––––––––––––––––––
DR12 -0.21 dB -16.43 dB 9:27 01-Indigo
DR12 -0.23 dB -15.94 dB 4:50 02-Bordel 1900
DR10 -0.21 dB -13.36 dB 3:02 03-Improvisation
DR12 -0.21 dB -15.51 dB 8:11 04-Tango Suite - Part 1
DR11 -0.15 dB -14.83 dB 8:12 05-Tango Suite - Part 3
DR11 -0.17 dB -13.72 dB 5:49 06-Mediterranean Sundance
DR13 -0.33 dB -18.66 dB 4:23 07-Summer Country Song
––––––––––––––––––––––––––––––––––––––––

Number of tracks: 7
Official DR value: DR12

Samplerate: 44100 Hz
Channels: 2
Bits per sample: 16
Bitrate: 780 kbps
Codec: FLAC
================================================================================

Al Di Meola - Live at the North Sea Jazz Festival, 1993 (2012)

Al Di Meola - Live at the North Sea Jazz Festival, 1993 (2012)