Subcategories

Al Di Meola - Heart Of The Immigrants (1993) {Tomato}

Posted By: tiburon
Al Di Meola - Heart Of The Immigrants (1993) {Tomato}

Al Di Meola - Heart Of The Immigrants (1993) {Tomato}
EAC 0.95b4 | FLAC Image level 8 | Cue+Log | Full Scans 600dpi | 364MB + 5% Recovery
Genre: Fusion, World Fusion, Tango

Guitarist Al di Meola has been alternating electric and acoustic projects for the past few years. For this acoustic affair, he teams up with Dino Saluzzi on bandoneon to pay tribute to tango master Astor Piazzolla. The music (even a duet version of "Someday My Prince Will Come") has the flavor of Argentina and uses a wide variety of instrumentations, including an occasional string section and the voice of Hernan Romero. It's recommended to lovers of world music, the modern tango, and those who think of di Meola's guitar playing as being one-dimensional and purely based on speed.
Track List
01. Nightclub 1960
02. Vistaero
03. Carousel Requiem
04. Tango II
05. Under A Dark Moon
06. Bordel 1900
07. Indigo
08. Heru Mertar / Don't Go So Far Away
09. Parranda
10. Someday My Prince Will Come
11. Cafe 1930
12. They Love Me From Fifteen Feet Away
13. Milonga Del Angel

musicians
Al Di Meola – acoustic guitars, Roland GRI guitar synthesiser, Synclavier, charango, voice
Chris Carrington - Acoustic guitar on 6, 7, 11
Dino Saluzzi - bandoneon on 1,4, 6, 8-12
Arto Tunçboyacıyan - percussion, voice, turkish string instrument on 2, 5-9, 12
Hernan Romero - voice on 2, 5, 9
String section on 1, 6, 7, 11
Vince Mendoza - conductor, arranger
Barry Gold, David Speltz, Gloria Lum, Jodie Burnett, Nancy Stein, Ron Leonard, Tim Landaur - cello
Arni Egilson, Timothy Barr - bass

Produced by Al Di Meola


EAC extraction logfile from 3. December 2007, 22:27 for CD
Al Di Meola World Sinfonia / Heart Of The Immigrants

Used drive : PIONEER DVD-RW DVR-106D Adapter: 1 ID: 0
Read mode : Secure with NO C2, accurate stream, disable cache
Read offset correction : 48
Overread into Lead-In and Lead-Out : No

Used output format : Internal WAV Routines
44.100 Hz; 16 Bit; Stereo

Other options :
Fill up missing offset samples with silence : Yes
Delete leading and trailing silent blocks : No
Installed external ASPI interface


Range status and errors
Selected range
Filename H:\Uploads ru\Al Di Meola World Sinfonia - Heart Of The Immigrants\Al Di Meola World Sinfonia - Heart Of The Immigrants.wav

Peak level 97.7 %
Range quality 100.0 %
CRC 8D9F8313
Copy OK

No errors occured

End of status report


––––––––––––––––––––––––––––––––––––––––
Analyzed: Al Di Meola World Sinfonia / Heart Of The Immigrants
––––––––––––––––––––––––––––––––––––––––

DR Peak RMS Duration Track
––––––––––––––––––––––––––––––––––––––––
DR11 -0.20 dB -14.71 dB 5:46 01-Nightclub 1960
DR12 -0.20 dB -15.18 dB 4:37 02-Vistaero
DR11 -0.20 dB -13.77 dB 6:18 03-Carousel Requiem
DR13 -0.20 dB -16.04 dB 5:36 04-Tango II
DR12 -0.20 dB -14.13 dB 5:13 05-Under A Dark Moon
DR9 -0.20 dB -12.57 dB 4:33 06-Bordel 1900
DR12 -0.20 dB -15.85 dB 7:05 07-Indigo
DR12 -0.20 dB -15.88 dB 4:40 08-Heru Mertar / Don't Go So Far Away
DR12 -0.20 dB -13.97 dB 4:26 09-Parranda
DR15 -0.20 dB -19.67 dB 5:12 10-Someday My Prince Will Come
DR11 -0.20 dB -15.27 dB 6:16 11-Cafe 1930
DR11 -2.50 dB -17.96 dB 1:25 12-They Love Me From Fifteen Feet Away
DR13 -0.20 dB -15.17 dB 3:46 13-Milonga Del Angel
––––––––––––––––––––––––––––––––––––––––

Number of tracks: 13
Official DR value: DR12

Samplerate: 44100 Hz
Channels: 2
Bits per sample: 16
Bitrate: 748 kbps
Codec: FLAC
================================================================================

Al Di Meola - Heart Of The Immigrants (1993) {Tomato}
Al Di Meola 			  		 	 	  		 	    	 			   		   	  		 		   		 		   	 			   		   	  		  		  		      	 			   		   	  		 	 	  		 						 - Heart Of The Immigrants (1993) {Tomato}
Al Di Meola - Heart Of The Immigrants (1993) {Tomato}


Rip by Evermiles