Subcategories

Al Di Meola - Pursuit Of Radical Rhapsody (2011) {Telarc} [Re-Up]

Posted By: tiburon
Al Di Meola - Pursuit Of Radical Rhapsody (2011) {Telarc} [Re-Up]

Al Di Meola - Pursuit Of Radical Rhapsody (2011) {Telarc}
EAC 1.0b1 | FLAC tracks level 8 | Cue+Log+M3U+MD5 | Full Scans 600dpi | 470MB + 5% Recovery
MP3 CBR 320 Kbps | 207MB + 5% Recovery
Genre: Fusion

Generally speaking, guitar wizard Al Di Meola has divided his musical attentions over the years between electric and acoustic, fusion and world music directions. This time out he splits the difference with some dazzling results. Coming off his short-lived reunion with Return to Forever, Di Meola returns to the solo spotlight with Pursuit of Radical Rhapsody, a strong and varied effort that moves mostly in the acoustic direction and features some high-profile personnel, including pianist Gonzalo Rubalcaba and bassist Charlie Haden.
Track List
01. Siberiana 8:28
02. Paramour's Lullaby 7:45
03. Mawazine Part1 2:07
04. Michelangelo's 7th Child 7:30
05. Gumbiero 6:18
06. Brave New World 1:54
07. Full Frontal Contrapuntal 4:52
08. That Way Before 3:06
09. Fireflies 4:01
10. Destination Gonzalo 5:16
11. Bona 6:00
12. Radical Rhapsody 5:02
13. Strawberry Fields 4:09
14. Mawazine Part2 2:54
15. Over the Rainbow 3:04

musicians
World Sinfonia is:
Al Di Meola - acoustic and electric guitars,percussion,keyboards
Fausto beccalossi - accordion
Kevin Seddiki - 2nd guitar parts
Gumbi Ortiz - percussion
Peter Kaszas - drums,percussion
Victor Miranda - acoustic upright baby bass

Special Guests:
Charlie Haden - acoustic bass on tracks 13,15
Peter Erskine - drums on tracks 4,10,12,
Gonzalo Rubalcaba - piano on tracks 5,10,12,13
Barry Miles - string arrangements,additional keyboards
Mino Cinelu - percussion on tracks 3,4,13,14

Hungary's Sturcz String Quartet:

Gabor Csonka - violin
Viktor Uhrin - violin
Gergely Kuklis - violin
Gyula Benk - viola
Andreas Strurcz - cello

Produced by Al Di Meola


Exact Audio Copy V1.0 beta 1 from 15. November 2010

EAC extraction logfile from 13. May 2011, 16:40

Al Di Meola / Pursuit Of Radical Rhapsody

Used drive : HL-DT-STDVDRAM GH20NS10 Adapter: 2 ID: 1

Read mode : Secure
Utilize accurate stream : Yes
Defeat audio cache : Yes
Make use of C2 pointers : No

Read offset correction : 667
Overread into Lead-In and Lead-Out : No
Fill up missing offset samples with silence : Yes
Delete leading and trailing silent blocks : No
Null samples used in CRC calculations : Yes
Used interface : Native Win32 interface for Win NT & 2000
Gap handling : Appended to previous track

Used output format : User Defined Encoder
Selected bitrate : 1024 kBit/s
Quality : High
Add ID3 tag : No
Command line compressor : C:\Program Files\Exact Audio Copy\Flac\flac.exe
Additional command line options : -8 -V -T "ARTIST=%a" -T "TITLE=%t" -T "ALBUM=%g" -T "DATE=%y" -T "TRACKNUMBER=%n" -T "TOTALTRACKS=%x" -T "GENRE=%m" -T "ALBUMARTIST=%v" -T "ALBUM ARTIST=%v" -T "COMMENT=EAC Secure Mode, Test & Copy, AccurateRip, FLAC -8" %s


TOC of the extracted CD

Track | Start | Length | Start sector | End sector
––––––––––––––––––––––––––––-
1 | 0:00.00 | 8:28.64 | 0 | 38163
2 | 8:28.64 | 7:45.66 | 38164 | 73104
3 | 16:14.55 | 2:07.02 | 73105 | 82631
4 | 18:21.57 | 7:30.26 | 82632 | 116407
5 | 25:52.08 | 6:18.05 | 116408 | 144762
6 | 32:10.13 | 1:54.09 | 144763 | 153321
7 | 34:04.22 | 4:52.05 | 153322 | 175226
8 | 38:56.27 | 3:06.11 | 175227 | 189187
9 | 42:02.38 | 4:01.20 | 189188 | 207282
10 | 46:03.58 | 5:16.74 | 207283 | 231056
11 | 51:20.57 | 6:00.10 | 231057 | 258066
12 | 57:20.67 | 5:02.15 | 258067 | 280731
13 | 62:23.07 | 4:09.47 | 280732 | 299453
14 | 66:32.54 | 2:54.32 | 299454 | 312535
15 | 69:27.11 | 3:04.68 | 312536 | 326403


Track 1

Filename G:\Al Di Meola - Pursuit Of Radical Rhapsody (2011) {Telarc 32835-02}\01 - Siberiana.wav

Pre-gap length 0:00:02.00

Peak level 98.8 %
Extraction speed 5.3 X
Track quality 100.0 %
Test CRC EDBA5A59
Copy CRC EDBA5A59
Cannot be verified as accurate (confidence 5) [3527C69E], AccurateRip returned [E322A9B7]
Copy OK

Track 2

Filename G:\Al Di Meola - Pursuit Of Radical Rhapsody (2011) {Telarc 32835-02}\02 - Paramour's Lullaby.wav

Peak level 98.8 %
Extraction speed 4.3 X
Track quality 99.9 %
Test CRC 174E8F02
Copy CRC 174E8F02
Cannot be verified as accurate (confidence 5) [0AD19466], AccurateRip returned [7151A6C7]
Copy OK

Track 3

Filename G:\Al Di Meola - Pursuit Of Radical Rhapsody (2011) {Telarc 32835-02}\03 - Mawazine Part 1.wav

Peak level 98.8 %
Extraction speed 5.1 X
Track quality 100.0 %
Test CRC 78DC255E
Copy CRC 78DC255E
Cannot be verified as accurate (confidence 5) [4D2E66E7], AccurateRip returned [05D19155]
Copy OK

Track 4

Filename G:\Al Di Meola - Pursuit Of Radical Rhapsody (2011) {Telarc 32835-02}\04 - Michelangelo's 7th Child.wav

Peak level 98.8 %
Extraction speed 6.8 X
Track quality 100.0 %
Test CRC CAF5D05F
Copy CRC CAF5D05F
Cannot be verified as accurate (confidence 5) [1B7A6476], AccurateRip returned [E0CE81B5]
Copy OK

Track 5

Filename G:\Al Di Meola - Pursuit Of Radical Rhapsody (2011) {Telarc 32835-02}\05 - Gumbiero.wav

Peak level 98.8 %
Extraction speed 4.9 X
Track quality 100.0 %
Test CRC 58849435
Copy CRC 58849435
Cannot be verified as accurate (confidence 5) [F49B75A7], AccurateRip returned [8B9FF796]
Copy OK

Track 6

Filename G:\Al Di Meola - Pursuit Of Radical Rhapsody (2011) {Telarc 32835-02}\06 - Brave New World.wav

Peak level 98.8 %
Extraction speed 5.1 X
Track quality 100.0 %
Test CRC 54C38943
Copy CRC 54C38943
Cannot be verified as accurate (confidence 5) [E87F6AAE], AccurateRip returned [470F3B9F]
Copy OK

Track 7

Filename G:\Al Di Meola - Pursuit Of Radical Rhapsody (2011) {Telarc 32835-02}\07 - Full Frontal Contrapuntal.wav

Peak level 98.8 %
Extraction speed 6.2 X
Track quality 100.0 %
Test CRC 8EC032D0
Copy CRC 8EC032D0
Cannot be verified as accurate (confidence 5) [1B7ABF71], AccurateRip returned [3D466906]
Copy OK

Track 8

Filename G:\Al Di Meola - Pursuit Of Radical Rhapsody (2011) {Telarc 32835-02}\08 - That Way Before.wav

Peak level 98.8 %
Extraction speed 6.2 X
Track quality 100.0 %
Test CRC 64F03EB2
Copy CRC 64F03EB2
Cannot be verified as accurate (confidence 5) [DE3D3068], AccurateRip returned [034AAFFF]
Copy OK

Track 9

Filename G:\Al Di Meola - Pursuit Of Radical Rhapsody (2011) {Telarc 32835-02}\09 - Fireflies.wav

Peak level 98.8 %
Extraction speed 7.3 X
Track quality 100.0 %
Test CRC FF9026D4
Copy CRC FF9026D4
Cannot be verified as accurate (confidence 5) [7D3B4CF0], AccurateRip returned [E203A395]
Copy OK

Track 10

Filename G:\Al Di Meola - Pursuit Of Radical Rhapsody (2011) {Telarc 32835-02}\10 - Destination Gonzalo.wav

Peak level 98.8 %
Extraction speed 7.7 X
Track quality 100.0 %
Test CRC 44E62998
Copy CRC 44E62998
Cannot be verified as accurate (confidence 5) [C47DBB73], AccurateRip returned [D6DB420E]
Copy OK

Track 11

Filename G:\Al Di Meola - Pursuit Of Radical Rhapsody (2011) {Telarc 32835-02}\11 - Bona.wav

Peak level 98.8 %
Extraction speed 8.5 X
Track quality 100.0 %
Test CRC 4106B7E5
Copy CRC 4106B7E5
Cannot be verified as accurate (confidence 5) [4870C260], AccurateRip returned [006F2D29]
Copy OK

Track 12

Filename G:\Al Di Meola - Pursuit Of Radical Rhapsody (2011) {Telarc 32835-02}\12 - Radical Rhapsody.wav

Peak level 98.8 %
Extraction speed 8.7 X
Track quality 100.0 %
Test CRC 14371C89
Copy CRC 14371C89
Cannot be verified as accurate (confidence 5) [CE53E696], AccurateRip returned [3BC644F1]
Copy OK

Track 13

Filename G:\Al Di Meola - Pursuit Of Radical Rhapsody (2011) {Telarc 32835-02}\13 - Strawberry Fields.wav

Peak level 98.8 %
Extraction speed 5.9 X
Track quality 100.0 %
Test CRC D985A2F3
Copy CRC D985A2F3
Cannot be verified as accurate (confidence 5) [489B0060], AccurateRip returned [5F3622E2]
Copy OK

Track 14

Filename G:\Al Di Meola - Pursuit Of Radical Rhapsody (2011) {Telarc 32835-02}\14 - Mawazine Part 2.wav

Peak level 98.8 %
Extraction speed 8.2 X
Track quality 100.0 %
Test CRC 6D63177D
Copy CRC 6D63177D
Cannot be verified as accurate (confidence 5) [A366B228], AccurateRip returned [42A7BA3E]
Copy OK

Track 15

Filename G:\Al Di Meola - Pursuit Of Radical Rhapsody (2011) {Telarc 32835-02}\15 - Over The Rainbow.wav

Peak level 98.8 %
Extraction speed 7.4 X
Track quality 100.0 %
Test CRC E9FB93D5
Copy CRC E9FB93D5
Cannot be verified as accurate (confidence 5) [124254CF], AccurateRip returned [20E52640]
Copy OK


No tracks could be verified as accurate
You may have a different pressing from the one(s) in the database

No errors occurred

End of status report


––––––––––––––––––––––––––––––––––––––––
Analyzed: Al Di Meola / Pursuit Of Radical Rhapsody
––––––––––––––––––––––––––––––––––––––––

DR Peak RMS Duration Track
––––––––––––––––––––––––––––––––––––––––
DR5 -0.10 dB -7.13 dB 8:29 01-Siberiana
DR4 -0.10 dB -6.15 dB 7:46 02-Paramour's Lullaby
DR5 -0.10 dB -6.54 dB 2:07 03-Mawazine Part 1
DR5 -0.10 dB -7.59 dB 7:30 04-Michelangelo's 7th Child
DR5 -0.10 dB -6.92 dB 6:18 05-Gumbiero
DR7 -0.10 dB -9.24 dB 1:54 06-Brave New World
DR6 -0.10 dB -8.14 dB 4:52 07-Full Frontal Contrapuntal
DR6 -0.10 dB -7.72 dB 3:06 08-That Way Before
DR5 -0.10 dB -7.60 dB 4:01 09-Fireflies
DR5 -0.10 dB -6.97 dB 5:17 10-Destination Gonzalo
DR6 -0.10 dB -8.62 dB 6:00 11-Bona
DR5 -0.10 dB -6.34 dB 5:02 12-Radical Rhapsody
DR5 -0.10 dB -7.24 dB 4:10 13-Strawberry Fields
DR5 -0.10 dB -7.34 dB 2:54 14-Mawazine Part 2
DR5 -0.10 dB -7.35 dB 3:05 15-Over The Rainbow
––––––––––––––––––––––––––––––––––––––––

Number of tracks: 15
Official DR value: DR5

Samplerate: 44100 Hz
Channels: 2
Bits per sample: 16
Bitrate: 729 kbps
Codec: FLAC
================================================================================

Al Di Meola - Pursuit Of Radical Rhapsody (2011) {Telarc} [Re-Up]
Al Di Meola - Pursuit Of Radical Rhapsody (2011) {Telarc} [Re-Up]
Al Di Meola - Pursuit Of Radical Rhapsody (2011) {Telarc} [Re-Up]